さよならトリップ
Dormir

BASIC

Level: 3
BPM: 133
Notes: 223

1
口口口口 |----|
口口口口 |----|
口口口口 |----|
口口口口 |----|
2
口口口口 |①---|
③口口③ |②---|
②口口② |--③-|
口①①口 |----|
3
①口口① |①---|
口②②口 |--②-|
口③④口 |--③-|
口口口口 |④---|
4
口口口口 |①---|
口口口口 |②---|
口③③口 |--③-|
①②②① |----|
5
①口口① |①---|
②口口② |--②-|
口③③口 |----|
口口口口 |③---|
6
口口口口 |①---|
口口口口 |②---|
①口口④ |③---|
口②③口 |④---|
7
口③②口 |①---|
④口口① |②---|
口口口口 |③---|
口口口口 |④---|
8
口口口口 |①---|
口口口口 |②---|
①口口④ |③---|
口②③口 |④---|
9
口③②口 |①---|
④口口① |②---|
口口口口 |③---|
口口口口 |④---|
10
口口口口 |①---|
口口口口 |----|
②②①① |②---|
口口口口 |----|
11
②②①① |①---|
口口口口 |----|
口口口口 |②---|
口口口口 |----|
12
口口口口 |①---|
①口口② |----|
口口口口 |②---|
口口口口 |----|
13
口口口口 |①---|
口②②口 |②---|
口①①口 |----|
口口口口 |----|
14
②②①① |①---|
口口口口 |----|
口口口口 |②---|
口口口口 |----|
15
口口口口 |①---|
口口口口 |----|
②②①① |②---|
口口口口 |----|
16
口口口口 |①---|
①口口② |----|
口口口口 |②---|
口口口口 |----|
17
口口口口 |①---|
口②②口 |②---|
口①①口 |----|
口口口口 |----|
18
口口口口 |①---|
口口口口 |----|
口口口口 |②---|
②②①① |----|
19
口口口口 |①---|
②②①① |----|
口口口口 |②---|
口口口口 |----|
20
口口口口 |①---|
口口口口 |----|
②口口① |②---|
口口口口 |----|
21
②口口② |①---|
口①①口 |②---|
口口口口 |----|
口口口口 |----|
22
口口口口 |①---|
②②①① |----|
口口口口 |②---|
口口口口 |----|
23
口口口口 |①---|
口口口口 |----|
口口口口 |②---|
②②①① |----|
24
口口口口 |①---|
口口口口 |----|
②口口① |②---|
口口口口 |----|
25
②口口② |①---|
口①①口 |②---|
口口口口 |----|
口口口口 |----|
26
③口口口 |----|
②口口口 |①---|
①口口口 |②---|
口口口口 |③---|
27
口①②③ |①---|
口口口口 |②---|
口口口口 |③---|
口口口口 |----|
28
口口口口 |----|
口口口① |①---|
口口口② |②---|
口口口③ |③---|
29
口口口口 |①---|
口口口口 |②---|
口口口口 |③---|
③②①口 |----|
30
口②口口 |----|
①口③口 |①---|
口口口口 |②---|
口口口口 |③---|
31
口口口口 |①---|
口口口口 |②---|
口口口① |③---|
口③②口 |----|
32
口口口口 |----|
③口口③ |①---|
②口口② |②---|
①口口① |③---|
33
①②②① |①---|
口③③口 |②---|
口口口口 |③---|
口口口口 |----|
34
口口口口 |①---|
②口口④ |②---|
①口口③ |③---|
口口口口 |④---|
35
口口口口 |①---|
口③④口 |②---|
口①②口 |③---|
口口口口 |④---|
36
口①②口 |①---|
③口口④ |②---|
口口口口 |③---|
口口口口 |④---|
37
口口口口 |①---|
口口口口 |②---|
①口口② |----|
口口口口 |----|
38
口口口口 |①---|
口口口④ |②---|
口口口③ |③---|
口①②口 |④---|
39
口②①口 |①---|
③口口口 |②---|
④口口口 |③---|
口口口口 |④---|
40
口口口口 |①---|
口③④口 |②---|
口①②口 |③---|
口口口口 |④---|
41
①口口② |①---|
口口口口 |②---|
口口口口 |----|
口口口口 |----|
42
②口口③ |①---|
口口口口 |----|
①口口① |②---|
口口口口 |③---|
43
口口口口 |①---|
①口口① |----|
口②③口 |②---|
口口口口 |③---|
44
口口口口 |①---|
②口口③ |----|
口口口口 |②---|
①口口① |③---|
45
口①①口 |①---|
口②③口 |----|
口口口口 |②---|
口口口口 |③---|
46
口口口口 |①---|
②口口③ |----|
口口口口 |②---|
①口口① |③---|
47
口口口口 |①---|
口②③口 |----|
口口口口 |②---|
口①①口 |③---|
48
口②口口 |①---|
口口③口 |----|
口①①口 |②---|
口口口口 |③---|
49
口口口口 |①---|
口②③口 |----|
①口口① |②---|
口口口口 |③---|
50
口口口口 |①---|
②②口口 |----|
口口①① |②---|
口口口口 |----|
51
口口口口 |①---|
口口②② |----|
①①口口 |②---|
口口口口 |----|
52
口口口口 |①---|
口口口口 |----|
口口口口 |②---|
②②①① |----|
53
口口口口 |①---|
①口口① |②---|
口②②口 |③---|
口③③口 |----|
54
口口口口 |①---|
口口②② |----|
①①口口 |②---|
口口口口 |----|
55
口口口口 |①---|
②②口口 |----|
口口①① |②---|
口口口口 |----|
56
口口口口 |①---|
口口口口 |----|
口口口口 |②---|
①①②② |----|
57
②口口② |①---|
口口口口 |②---|
口①①口 |----|
口口口口 |----|
58
口口口口 |①---|
①口口口 |----|
口口口口 |----|
口口口口 |----|
59
口口口口 |①---|
口口口口 |----|
口①口口 |----|
口口口口 |----|
60
口口口口 |①---|
口口口口 |----|
口口口口 |----|
口口①口 |----|


不确定度: 0

タグ:

+ タグ編集
  • タグ:

このサイトはreCAPTCHAによって保護されており、Googleの プライバシーポリシー利用規約 が適用されます。

最終更新:2012年11月10日 13:59