ナイト・オブ・ナイツ
ビートまりお(COOL&CREATE)

EXTREME

Level: 10
BPM: 180
Notes: 928

1
口口口口 |----|
口口口口 |----|
口口口口 |----|
口口口口 |----|
2
①口口② |①-②-|
⑦③④口 |③④-⑤|
⑧⑨⑩⑪ |-⑥-⑦|
⑥口口⑤ |⑧⑨⑩⑪|
3
口②①口 |-①②-|
口口口⑤ |③④-⑤|
口口口口
口③④口

口口⑨口
⑥口口口
口⑦口⑧ |-⑥-⑦|
口口口口 |⑧-⑨-|
4
①口口② |①-②-|
⑦③④口 |③④-⑤|
⑧⑨⑩⑪ |-⑥-⑦|
⑥口口⑤ |⑧⑨⑩⑪|
5
口②①口 |-①②-|
口口口⑤ |③④-⑤|
口口口口
口③④口

口口⑨口
⑥口口口
口⑦⑧口 |-⑥-⑦|
口口口口 |⑧-⑨-|
6
①口口② |①-②-|
⑦③④口 |③④-⑤|
⑧⑨⑩⑪ |-⑥-⑦|
⑥口口⑤ |⑧⑨⑩⑪|
7
口②①口 |-①②-|
口口口⑤ |③④-⑤|
口口口口
口③④口

口口⑨口
⑥口口口
口⑦口⑧ |-⑥-⑦|
口口口口 |⑧-⑨-|
8
①口口② |①-②-|
⑦③④口 |③④-⑤|
⑧⑨⑩⑪ |-⑥-⑦|
⑥口口⑤ |⑧⑨⑩⑪|
9
口②①口 |-①②-|
口口口⑤ |③④-⑤|
口口口口
口③④口

口口⑬口
⑫口口口
⑧⑩⑨⑪ |⑥⑦⑧⑨|
⑥口口⑦ |⑩⑪⑫⑬|
10
①口口② |①-②-|
⑦③④口 |③④-⑤|
⑧⑨⑩⑪ |-⑥-⑦|
⑥口口⑤ |⑧⑨⑩⑪|
11
口②①口 |-①②-|
口口口⑤ |③④-⑤|
口口口口
口③④口

口口⑨口
⑥口口口
口⑦⑧⑧ |-⑥-⑦|
口口口口 |⑧-⑨-|
12
①口口② |①-②-|
⑦③④口 |③④-⑤|
⑧⑨⑩⑪ |-⑥-⑦|
⑥口口⑤ |⑧⑨⑩⑪|
13
口②①口 |-①②-|
口口口⑤ |③④-⑤|
口口口口
口③④口

口口⑨口
⑥口口口
口⑦⑧⑧ |-⑥-⑦|
口口口口 |⑧-⑨-|
14
①口口② |①-②-|
⑦③④口 |③④-⑤|
⑧⑨⑩⑪ |-⑥-⑦|
⑥口口⑤ |⑧⑨⑩⑪|
15
口②①口 |-①②-|
口口口⑤ |③④-⑤|
口口口口
口③④口

口口⑨口
⑥口口口
口⑦口⑧ |-⑥-⑦|
口口口口 |⑧-⑨-|
16
①口口② |①-②-|
⑦③④口 |③④-⑤|
⑧⑨⑩⑪ |-⑥-⑦|
⑥口口⑤ |⑧⑨⑩⑪|
17
口②①口 |-①②-|
口口口⑤ |③④-⑤|
口口口口
口③④口

口口⑬口
⑫口口口
⑧⑩⑨⑪ |⑥⑦⑧⑨|
⑥口口⑦ |⑩⑪⑫⑬|
18
③①口⑥ |①-②-|
口④⑤口 |③④⑤-|
⑧⑨⑪⑩ |⑥-⑦-|
口②口⑦ |⑧⑨⑩⑪|
19
口②口口 |①-②-|
③④⑥⑤ |③④⑤⑥|
⑨口口⑩ |⑦-⑧-|
⑦①口⑧ |⑨-⑩-|
20
③①口⑥ |①-②-|
口④⑤口 |③④⑤-|
⑧⑨⑪⑩ |⑥-⑦-|
口②口⑦ |⑧⑨⑩⑪|
21
口②口⑧ |①-②-|
③④⑥⑤ |③④⑤⑥|
⑩口口口 |⑦-⑧-|
⑦①口⑨ |⑨-⑩-|
22
③①口⑥ |①-②-|
口④⑤口 |③④⑤-|
⑧⑨⑪⑩ |⑥-⑦-|
口②口⑦ |⑧⑨⑩⑪|
23
口②口口 |①-②-|
③④⑥⑤ |③④⑤⑥|
⑨口口⑩ |⑦-⑧-|
⑦①口⑧ |⑨-⑩-|
24
⑤①①⑤ |①-②③|
口④口口 |④-⑤-|
口口③口
口②口口

口⑩⑩口
口口⑨口
口⑧口口 |⑥-⑦⑧|
⑥口⑦⑥ |⑨-⑩-|
25
口口口口 |①-②③|
⑥②口⑥ |④-⑤-|
①口③① |⑥---|
⑤④口⑤ |----|
26
③①口⑥ |①-②-|
口④⑤口 |③④⑤-|
⑧⑨⑪⑩ |⑥-⑦-|
口②口⑦ |⑧⑨⑩⑪|
27
口②口口 |①-②-|
③④⑥⑤ |③④⑤⑥|
⑨口口⑩ |⑦-⑧-|
⑦①口⑧ |⑨-⑩-|
28
③①口⑥ |①-②-|
口④⑤口 |③④⑤-|
⑧⑨⑪⑩ |⑥-⑦-|
口②口⑦ |⑧⑨⑩⑪|
29
口②口口 |①-②-|
③④⑥⑤ |③④⑤⑥|
⑨口口⑩ |⑦-⑧-|
⑦①口⑧ |⑨-⑩-|
30
③①口⑥ |①-②-|
口④⑤口 |③④⑤-|
⑧⑨⑪⑩ |⑥-⑦-|
口②口⑦ |⑧⑨⑩⑪|
31
口②口⑧ |①-②-|
③④⑥⑤ |③④⑤⑥|
⑩口口口 |⑦-⑧-|
⑦①口⑨ |⑨-⑩-|
32
⑥①口⑥ |①-②③|
⑤④⑨⑤ |④-⑤-|
口⑧③口 |⑥-⑦⑧|
⑩②⑦⑩ |⑨-⑩-|
33
口①①口 |①---|
③口口③ |②---|
②口口② |③---|
口④④口 |④---|
34
②口③⑦ |①-②-|
口④口口 |③④⑤-|
⑩口⑤⑪ |⑥-⑦-|
①⑧⑨⑥ |⑧⑨⑩⑪|
35
②口口口 |①-②-|
⑦⑤⑥⑧ |③④⑤⑥|
⑨③④⑩ |⑦-⑧-|
①口口口 |⑨-⑩-|
36
②口③⑦ |①-②-|
口④口口 |③④⑤-|
⑩口⑤⑪ |⑥-⑦-|
①⑧⑨⑥ |⑧⑨⑩⑪|
37
②口口口 |①-②-|
⑦⑤⑥⑧ |③④⑤⑥|
⑨③④⑩ |⑦-⑧-|
①口口口 |⑨-⑩-|
38
⑤①①④ |①-②③|
口⑧口口 |④-⑤-|
口③⑦口 |⑥⑦⑧-|
⑩②⑥⑨ |⑨-⑩-|
39
④②②④ |①-②-|
③⑥⑥③ |③-④-|
①⑧⑧① |⑤-⑥-|
⑦⑤⑤⑦ |⑦-⑧-|
40
⑤②⑩口 |①-②-|
口口⑦④ |③④⑤-|
①⑨口③ |⑥-⑦-|
口⑧⑥口 |⑧⑨⑩-|
41
③④口⑧ |①-②-|
②⑦⑦② |③④⑤⑥|
⑧口⑥⑤ |⑦-⑧-|
①口口① |----|
42
②口③⑦ |①-②-|
口④口口 |③④⑤-|
⑩口⑤⑪ |⑥-⑦-|
①⑧⑨⑥ |⑧⑨⑩⑪|
43
②口口口 |①-②-|
⑦⑤⑥⑧ |③④⑤⑥|
⑨③④⑩ |⑦-⑧-|
①口口口 |⑨-⑩-|
44
②口③⑦ |①-②-|
口④口口 |③④⑤-|
⑩口⑤⑪ |⑥-⑦-|
①⑧⑨⑥ |⑧⑨⑩⑪|
45
②口口口 |①-②-|
⑦⑤⑥⑧ |③④⑤⑥|
⑨③④⑩ |⑦-⑧-|
①口口口 |⑨-⑩-|
46
⑤①①④ |①-②③|
口⑧口口 |④-⑤-|
口③⑦口 |⑥⑦⑧-|
⑩②⑥⑨ |⑨-⑩-|
47
④②②④ |①-②-|
③⑥⑥③ |③-④-|
①⑧⑧① |⑤-⑥-|
⑦⑤⑤⑦ |⑦-⑧-|
48
⑤②⑩口 |①-②-|
口口⑦④ |③④⑤-|
①⑨口③ |⑥-⑦-|
口⑧⑥口 |⑧⑨⑩-|
49
口⑨口④ |①-②-|
①⑦⑨② |③④⑤⑥|
⑤口⑦⑧ |⑦-⑧-|
③⑧口⑥ |⑨---|
50
①⑧①② |①-②-|
⑤⑦⑦⑧ |③-④-|
③口⑤⑥ |⑤-⑥-|
口口③④ |⑦-⑧-|
51
口口①② |①-②-|
⑦口⑦⑧ |③-④-|
⑤口⑤⑥ |⑤-⑥-|
③口③④ |⑦-⑧-|
52
①口①② |①-②-|
⑦⑧⑦⑧ |③-④-|
⑤口⑤⑥ |⑤-⑥-|
③口③④ |⑦-⑧-|
53
口口①② |①-②-|
⑦⑧⑦⑧ |③-④-|
⑤口⑤⑥ |⑤-⑥-|
口③③④ |⑦-⑧-|
54
①口①② |①-②-|
⑦⑧⑦⑧ |③-④-|
⑤口⑤⑥ |⑤-⑥-|
③口③④ |⑦-⑧-|
55
口口①② |①-②-|
⑦口⑦⑧ |③-④-|
⑤口⑤⑥ |⑤-⑥-|
③口③④ |⑦-⑧-|
56
①口①② |①-②-|
⑦⑧⑦⑧ |③-④-|
⑤口⑤⑥ |⑤-⑥-|
③口③④ |⑦-⑧-|
57
口口①② |①-②-|
⑦口⑦⑧ |③-④-|
⑤口⑤⑥ |⑤-⑥-|
③口③④ |⑦-⑧-|
58
①口①② |①-②-|
⑦⑧⑦⑧ |③-④-|
⑤口⑤⑥ |⑤-⑥-|
③口③④ |⑦-⑧-|
59
③口①② |①-②-|
⑦⑧⑦⑧ |③-④-|
口口⑤⑥ |⑤-⑥-|
⑤口③④ |⑦-⑧-|
60
口①①② |①-②-|
⑧口⑦⑧ |③-④-|
⑤⑥⑤⑥ |⑤-⑥-|
口③③④ |⑦-⑧-|
61
口口①② |①-②-|
⑦⑧⑦⑧ |③-④-|
⑤口⑤⑥ |⑤-⑥-|
③口③④ |⑦-⑧-|
62
①②①② |①-②-|
⑦⑧⑦⑧ |③-④-|
⑤⑥⑤⑥ |⑤-⑥-|
③④③④ |⑦-⑧-|
63
③④①② |①-②-|
口口⑦⑧ |③-④-|
⑦⑧⑤⑥ |⑤-⑥-|
⑤⑥③④ |⑦-⑧-|
64
③④①② |①-②-|
①②⑦⑧ |③-④-|
⑦⑧⑤⑥ |⑤-⑥-|
⑤⑥③④ |⑦-⑧-|
65
④③②① |--①-|
①②口口 |②-③-|
口口④口 |④---|
口口口口 |----|
66
⑤口④口 |①-②-|
②口口② |③④⑤-|
③口口口
①口口①

口⑩口⑪
口⑦⑦口
口⑥⑥口 |⑥-⑦-|
口⑧口⑨ |⑧⑨⑩⑪|
67
⑤口⑥口 |①-②-|
①口口口 |③④⑤⑥|
③口④①
②口②口

口口口口
口⑨⑧口
口⑦口⑩ |⑦-⑧-|
口口口口 |⑨-⑩-|
68
⑤口④口 |①-②-|
②口口② |③④⑤-|
③口口口
①口口①

口⑩口⑪
口⑦⑦口
口⑥⑥口 |⑥-⑦-|
口⑧口⑨ |⑧⑨⑩⑪|
69
⑤口⑥口 |①-②-|
①口口口 |③④⑤⑥|
③口④①
②口②口

口⑨口⑩
口⑨⑧口
口⑦口⑩ |⑦-⑧-|
口口口口 |⑨-⑩-|
70
⑤口④口 |①-②-|
②口口② |③④⑤-|
③口口口
①口口①

口⑩口⑪
口⑦⑦口
口⑥⑥口 |⑥-⑦-|
口⑧口⑨ |⑧⑨⑩⑪|
71
⑤口⑥口 |①-②-|
①口口口 |③④⑤⑥|
③口④①
②口②口

口口口口
口⑨⑧口
口⑦口⑩ |⑦-⑧-|
口口口口 |⑨-⑩-|
72
④⑤⑤口 |①-②③|
口口口③ |④-⑤-|
②口口口
口①①口

口口口口
口⑨口口
口⑦口⑧ |⑥-⑦⑧|
⑥⑩⑩⑥ |⑨-⑩-|
73
④⑤⑤口 |①-②③|
①口③① |④-⑤-|
②⑥⑥口 |⑥---|
口⑦⑦口 |⑦---|
74
⑤口④口 |①-②-|
②口口② |③④⑤-|
③口口口
①口口①

口⑩口⑪
口⑦⑦口
口⑥⑥口 |⑥-⑦-|
口⑧口⑨ |⑧⑨⑩⑪|
75
⑤口⑥口 |①-②-|
①口口口 |③④⑤⑥|
③口④①
②口②口

口⑨口⑩
口⑨⑧口
口⑦口⑩ |⑦-⑧-|
口口口口 |⑨-⑩-|
76
⑤口④口 |①-②-|
②口口② |③④⑤-|
③口口口
①口口①

口⑩口⑪
口⑦⑦口
口⑥⑥口 |⑥-⑦-|
口⑧口⑨ |⑧⑨⑩⑪|
77
⑤⑨⑥⑩ |①-②-|
①口口⑧ |③④⑤⑥|
③⑦④① |⑦-⑧-|
②口②口 |⑨-⑩-|
78
⑦口口⑦ |①---|
口④口⑤ |--②③|
口⑥⑥③ |④-⑤-|
①②口① |⑥-⑦-|
79
口⑩口口 |--①-|
③④⑦⑧ |②-③④|
口口⑥⑤ |⑤⑥⑦⑧|
①⑨口② |⑨-⑩-|
80
①⑨口① |①-②③|
⑥④⑧⑥ |④-⑤-|
⑤②口⑤ |⑥-⑦⑧|
⑩⑦③⑩ |⑨-⑩-|
81
①口口① |①---|
③口口③ |②---|
②口口② |③---|
④口口④ |④---|

不確定度: 0

最終更新:2016年04月21日 01:30