Bad Apple!! feat. nomico
Masayoshi Minoshima

EXTREME

Level: 8
BPM: 138
Notes: 666

1
口口口口 |----|
口口口口 |----|
口口口口 |----|
口口口口 |----|
2
①口④口 |①---|
②⑤口口 |②---|
③口⑥口 |③---|
口⑦口口 |④⑤⑥⑦|
3
口口口① |①---|
口口口② |②---|
口口口③ |③---|
④口口⑤ |④-⑤-|
4
①口④口 |①---|
②⑤口口 |②---|
③口⑥口 |③---|
口⑦口口 |④⑤⑥⑦|
5
口口口① |①---|
口口口② |②---|
口口口③ |③---|
④口口⑤ |④-⑤-|
6
①口④口 |①---|
②⑤口口 |②---|
③口⑥口 |③---|
口⑦口口 |④⑤⑥⑦|
7
口口口① |①---|
口口口② |②---|
口口口③ |③---|
④口口⑤ |④-⑤-|
8
①口④口 |①---|
②⑤口口 |②---|
③口⑥口 |③---|
口⑦口口 |④⑤⑥⑦|
9
口口口① |①---|
口④④② |②---|
口④④③ |③---|
口口口口 |④---|
10
⑧⑨⑩⑥ |①--②|
②口口⑦ |-③④⑤|
口⑤④③ |⑥--⑦|
①口口口 |-⑧⑨⑩|
11
口口口口 |①--②|
②口口口 |-③④⑤|
口口口口
①⑤④③

口⑪口口
⑩⑧⑨⑥
⑦口⑨⑥ |⑥-⑦⑧|
口口口口 |⑨-⑩⑪|
12
口口口口 |①--②|
⑦口口② |-③④⑤|
⑥⑩⑨⑧ |⑥--⑦|
③④⑤① |-⑧⑨⑩|
13
口口口① |①--②|
口口口② |-③④⑤|
口口口口
③④⑤口

⑥⑨口⑦
⑥⑨⑧⑩
口口⑪口 |⑥-⑦⑧|
口口口口 |⑨-⑩⑪|
14
口口口口 |①--②|
②口口口 |-③④⑤|
口口口口
①⑤④③

口口口口
⑧⑨⑩⑥
口口口⑦ |⑥--⑦|
口口口口 |-⑧⑨⑩|
15
②口口口 |①--②|
口口口口 |-③④⑤|
①口口口
口⑤④③

口⑪口口
⑩⑧⑨⑥
⑦口⑨⑥ |⑥-⑦⑧|
口口口口 |⑨-⑩⑪|
16
⑥口口口 |①--②|
⑦口口② |-③④⑤|
口⑩⑨⑧ |⑥--⑦|
③④⑤① |-⑧⑨⑩|
17
口口口② |①--②|
口⑦⑩① |-③④⑤|
⑥⑨⑧⑪ |⑥-⑦-⑧-|
③④⑤口 |⑨-⑩-⑪-|
18
①口口口 |①-②-|
口⑤口② |③-④-|
③⑦⑥口 |⑤---|
口⑤口④ |⑥-⑦-|
19
②口口① |①---|
⑥⑤④③ |②---|
②口口① |③-④-|
口口口口 |⑤-⑥-|
20
口口口口 |①-②-|
口口口口 |③-④-|
④②口口
口口③①

⑤口口⑤
口口口口
口⑦⑥口 |⑤---|
口口口口 |⑥-⑦-|
21
⑧②①⑦ |①-②-|
②⑧⑦① |③-④-|
④⑥⑤③ |⑤-⑥-|
⑥④③⑤ |⑦-⑧-|
22
口口⑤口 |①-②-|
④⑥⑦③ |③-④-|
口口⑤口 |⑤---|
口②①口 |⑥-⑦-|
23
①口口② |①---|
口口口口 |②---|
①④③② |③-④-|
口⑥⑤口 |⑤-⑥-|
24
⑤口口④ |①-②-|
③口⑥口 |③-④-|
⑤⑦口② |⑤---|
①口口口 |⑥-⑦-|
25
②口口② |①---|
口④⑦口 |②---|
③⑥⑤⑧ |③-④-⑤-|
①口口① |⑥-⑦-⑧-|
26
口口口口 |①-②-|
①口口② |③-④-|
口口口口
③口口④

口⑤⑥⑥
⑦⑦⑤口
口⑤口口 |⑤---|
口口⑤口 |⑥-⑦-|
27
口口口口 |①---|
口口口口 |②---|
口口①①
②口口②

④口口③
口④③口
⑥口口⑤ |③-④-|
口⑥⑤口 |⑤-⑥-|
28
⑤②①⑤ |①-②-|
口⑥口口 |③-④-|
⑤口⑦⑤ |⑤---|
④口口③ |⑥-⑦-|
29
③④⑤⑥ |①-②-|
③④⑤⑥ |③-④-|
②①⑧⑦ |⑤-⑥-|
②①⑧⑦ |⑦-⑧-|
30
②口口③ |①-②-|
口口口口 |③-④-|
口口口口
①口口④

⑥⑥⑤口
口⑤⑦⑦
口口⑤口 |⑤---|
口⑤口口 |⑥-⑦-|
31
口口口口 |①---|
口口口口 |②---|
①①口口
②口口②

口口口口
口口④③
⑥⑤口口 |③-④-|
口口口口 |⑤-⑥-|
32
口⑥⑦口 |①-②-|
⑤②④⑤ |③-④-|
⑤口口⑤ |⑤---|
口①③口 |⑥-⑦-|
33
④④④④ |①---|
③③③③ |②---|
②②②② |③---|
①①①① |④---|
34
⑤⑦⑦④ |①-②-|
口③②口 |③-④-|
口①口口 |⑤---|
④⑥⑥⑤ |⑥-⑦-|
35
口口口④ |①-②-|
口口③口 |③-④-|
口②口①
④口口口

⑤⑥⑦口
口口口口
⑥口口⑦ |⑤---|
口口口⑤ |⑥-⑦-|
36
⑤口口④ |①-②-|
口口口① |③-④-|
⑦②③⑥ |⑤---|
④⑦⑥⑤ |⑥-⑦-|
37
⑦③②⑥ |①-②-|
④④①① |③-④-|
口③②口 |⑤---|
⑥⑤⑤⑦ |⑥-⑦-|
38
⑤⑦⑦④ |①-②-|
口②③① |③-④-|
口口口① |⑤---|
④⑥⑥⑤ |⑥-⑦-|
39
⑤⑥⑥④ |①-②-|
①②①口 |③-④-|
口③③口 |⑤---|
④⑦⑦⑤ |⑥-⑦-|
40
口口口④ |①-②-|
①②③口 |③-④-|
①口③口
④口口口

⑤⑦⑥口
口口口口
⑦口口⑥ |⑤---|
口口口⑤ |⑥-⑦-|
41
口口口口 |①-②-|
④②①③ |③-④-|
口⑥⑨口 |⑤-⑥-⑦-|
⑤⑧⑦⑩ |⑧-⑨-⑩-|
42
①①②① |①-②-|
③③④③ |③-④-|
⑤⑤口⑤ |⑤---|
⑥⑥⑦⑥ |⑥-⑦-|
43
①①①② |①-②-|
⑤⑤⑤口 |③-④-|
③③③④ |⑤---|
⑥⑥⑥⑦ |⑥-⑦-|
44
①①④② |①-②-|
⑤⑤③① |③-④-|
③③⑦⑤ |⑤---|
⑥⑥⑥口 |⑥-⑦-|
45
①①①② |①-②-|
③③③④ |③-④-|
⑥⑥⑦口 |⑤---|
⑤⑤⑤⑤ |⑥-⑦-|
46
①①口① |①-②-|
⑥⑥③⑥ |③-④-|
⑤⑤⑦⑤ |⑤---|
③③④② |⑥-⑦-|
47
③③①口 |①-②-|
口口④口 |③-④-|
口口口口
①①③②

口口口⑤
口口口口
⑤⑤口口 |⑤---|
⑥⑥口⑦ |⑥-⑦-|
48
口口④③ |①-②-|
②口③④ |③-④-|
口②口①
口口①口

口口口口
口⑤口口
⑤⑦⑥⑥ |⑤---|
口口口口 |⑥-⑦-|
49
口口口口 |①-②-|
①⑥⑨③ |③-④-|
⑤⑧⑦⑩ |⑤-⑥-⑦-|
口②④口 |⑧-⑨-⑩-|
50
口口口口 |①-②-|
⑤⑤⑦② |③-④-|
口口⑤⑥ |⑤---|
①①④③ |⑥-⑦-|
51
①①口① |①-②-|
口口口② |③-④-|
口口③口
口口④口

口口口⑥
口口⑦口
口口口口 |⑤---|
⑤⑤口⑤ |⑥-⑦-|
52
口口口口 |①-②-|
①①口① |③-④-|
口口②③
口口④口

口口⑤口
口口口口
⑤⑤⑦口 |⑤---|
口口口⑥ |⑥-⑦-|
53
①①口① |①-②-|
口口②⑤ |③-④-|
⑤⑤⑦③ |⑤---|
口口④⑥ |⑥-⑦-|
54
口口②③ |①-②-|
①口①口 |③-④-|
口口口④
口口口口

口口口口
口口⑦⑥
口口口口 |⑤---|
⑤口⑤口 |⑥-⑦-|
55
口口①口 |①-②-|
①口口口 |③-④-|
口口②④
口口口③

⑤口口口
口口⑤⑥
口口⑦口 |⑤---|
口口口口 |⑥-⑦-|
56
口口②① |①-②-|
⑤口③④ |③-④-|
①口口⑤ |⑤---|
口口⑥⑦ |⑥-⑦-|
57
①口口口 |①-②-|
口口③④ |③-④-|
口口①②
口口口口

口口⑤口
口口口口
口⑦⑥口 |⑤---|
⑤口口口 |⑥-⑦-|
58
口⑤口① |①-②-|
口⑥⑦口 |③-④-|
②⑤④口 |⑤---|
口③口口 |⑥-⑦-|
59
①口⑤⑥ |①-②-|
口⑦口② |③-④-|
③口⑤口 |⑤---|
口④口口 |⑥-⑦-|
60
口口口口 |①-②-|
①口口口 |③-④-|
口口④②
口③口口

口⑤口口
口口口口
口⑤口⑦ |⑤---|
口口口⑥ |⑥-⑦-|
61
口口口④ |①-②-|
②口口③ |③-④-|
①⑦⑥口 |⑤---|
口⑤⑤口 |⑥-⑦-|
62
口口口① |①-②-|
②⑤口口 |③-④-|
口⑦⑥④ |⑤---|
口③口口 |⑥-⑦-|
63
口口口① |①-②-|
②⑤口口 |③-④-|
口⑦⑥④ |⑤---|
口③口口 |⑥-⑦-|
64
③口口① |①-②-|
口口口口 |③-④-|
口⑦⑥口 |⑤---|
④⑤⑤② |⑥-⑦-|
65
②⑥⑤① |①-②-|
⑤口口⑥ |③-④-|
⑥口口⑤ |⑤---|
④⑤⑥③ |⑥---|
66
口口口口 |①---|
口①①口 |----|
口①①口 |----|
口口口口 |----|

不確定度: 0

最終更新:2016年04月21日 00:55