チルノのパーフェクトさんすう教室
ARM(IOSYS)

EXTREME

Level: 9
BPM: 175
Notes: 837

1
口口口口 |----|
口口口口 |----|
口口口口 |----|
口口口口 |----|
2
口口口④ |①-②-|
②⑥⑤④ |③-④-|
口③⑦口 |--⑤-|
①口口口 |⑥-⑦-|
3
口口口④ |①-②-|
②⑥⑤④ |③-④-|
口③⑦口 |--⑤-|
①口口口 |⑥-⑦-|
4
口口⑤口 |①-②-|
口⑥口口 |③-④-|
③口⑦④ |⑤-⑥-|
①⑧口② |⑦-⑧-|
5
口②⑤① |①-②-|
②⑥①③ |③-④-|
口④口口 |--⑤-|
④口口③ |⑥---|
6
④口口② |①-②-|
④口③口 |③-④-|
口口⑦① |--⑤-|
口⑥⑤口 |⑥-⑦-|
7
⑤⑥⑦④ |①-②-|
口口②④ |③-④-|
①③口口 |--⑤-|
①口口口 |⑥-⑦-|
8
口口口④ |①-②-|
①⑧⑤口 |③-④-|
口⑥⑦② |⑤-⑥-|
③口口口 |⑦-⑧-|
9
⑥口口⑦ |①-②-|
口口⑤口 |③-④-|
④⑥⑦③ |--⑤-|
口②①⑤ |⑥-⑦-|
10
口口口口 |①---|
口①口② |--②-|
⑥口口③ |③-④-|
①⑤④口 |⑤-⑥-|
11
口口口③ |①---|
①口口口 |----|
口口口口 |--②-|
④口口② |③-④-|
12
①⑤④口 |①---|
⑥口口③ |--②-|
口口口② |③-④-|
口口口口 |⑤-⑥-|
13
口口口口 |①---|
口口口口 |----|
①口口口 |----|
口③②口 |②-③-|
14
④口口④ |①---|
①口②① |--②-|
口③口口 |③---|
口口口口 |④---|
15
⑧③①⑧ |①-②-|
⑦口口⑦ |③-④-|
⑥④②⑥ |⑤-⑥-|
⑤口口⑤ |⑦-⑧-|
16
口口口口 |①-②-|
口⑦⑤口 |③-④-|
口③①口 |⑤-⑥-|
⑧④②⑥ |⑦-⑧-|
17
③④②① |①-②-|
⑦口口⑥ |③-④-|
口⑤⑤口 |⑤-⑥-|
口⑦⑥口 |⑦---|
18
③口②① |①---|
④③①口 |②-③-|
口⑥⑤口 |--④-|
口⑧⑦口 |⑤⑥⑦⑧|
19
口⑥⑥口 |①---|
④③①② |②-③-|
③口口① |--④-|
口⑤⑤口 |⑤-⑥-|
20
口口口口 |①---|
口口①口 |②-③-|
口③口①
③口口②

口口口口
⑤⑥⑦⑧
口口口口 |--④-|
口④口口 |⑤⑥⑦⑧|
21
④⑤口① |①-②-|
口⑧⑧口 |③-④⑤|
口⑦⑥口 |-⑥⑦-|
③⑨⑨② |⑧-⑨-|
22
口③①口 |①---|
口⑥⑤口 |②-③-|
③⑧⑦① |--④-|
④口口② |⑤⑥⑦⑧|
23
口口口⑤ |①---|
③④⑥① |②-③-|
口⑤口口 |--④-|
⑥③①② |⑤-⑥-|
24
口③口⑤ |①---|
⑥口口① |②-③-|
③④⑦② |--④-|
口⑧①口 |⑤⑥⑦⑧|
25
⑪⑧⑥⑩ |①②③④|
口⑦⑤口 |⑤⑥⑦⑧|
④口口② |⑨-⑩-|
③⑫⑨① |⑪-⑫-|
26
⑧口⑥口 |①---|
③⑦口⑤ |②-③-|
口③①② |--④-|
④口口① |⑤⑥⑦⑧|
27
口③口口 |①---|
③口口口 |②-③-|
口口①口
口口②①

口口口⑤
口⑥口口
口④口口 |--④-|
⑤口口⑥ |⑤-⑥-|
28
口口口口 |①---|
口口口① |②-③-|
③口①口
口③②口

口④口口
⑤⑥⑦⑧
口口口口 |--④-|
口口口口 |⑤⑥⑦⑧|
29
④⑤口① |①-②-|
口⑧⑧口 |③-④⑤|
口⑦⑥口 |-⑥⑦-|
③⑨⑨② |⑧-⑨-|
30
⑧③①② |①---|
口⑦口口 |②-③-|
③口⑥① |--④-|
④口口⑤ |⑤⑥⑦⑧|
31
口④口⑤ |①---|
③口⑥① |②-③-|
口⑤口② |--④-|
⑥③①口 |⑤-⑥-|
32
⑧⑨⑥口 |①②-③|
⑨①口③ |④-⑤⑥|
④口②⑩ |-⑦⑧-|
口⑤⑩⑦ |⑨-⑩-|
33
⑤口口④ |①-②-|
⑥①②⑥ |③-④⑤|
⑥①②⑥ |----|
③③口口 |⑥---|
34
⑤口口口 |①-②-|
口口④口 |③-④-|
口③②口 |⑤---|
口口口① |----|
35
口口口口 |①-②-|
①口口口 |③-④-|
口③④② |⑤---|
口口口⑤ |----|
36
⑤⑤口④ |①-②-|
③⑤⑥口 |③-④-|
⑤⑤⑥② |⑤---|
①⑥口⑥ |⑥---|
37
口⑤口④ |①-②-|
③口口口 |③-④-|
口口口② |⑤---|
①口口口 |----|
38
口口口⑤ |①-②-|
口口口口 |③-④-|
口④②口 |⑤---|
口③①口 |----|
39
口口口口 |①---|
①口②口 |②---|
①口②口 |③---|
①②③② |----|
40
①口①口 |①---|
口①②口 |②---|
口①②口
口②口②

口口口口
口口口③
④⑥口口 |③-④-|
口口⑤口 |⑤-⑥-|
41
口口口① |①---|
②②口口 |--②-|
口口③③ |③---|
口口口口 |----|
42
①口口③ |①-②-|
口口口⑤ |③-④-|
口口⑤口 |⑤---|
②口口④ |----|
43
①①②口 |①---|
口①②口 |②---|
①②③② |③---|
①①口口 |----|
44
口口口口 |①-②-|
②⑤口④ |③-④-|
口口⑥口 |⑤---|
①口口③ |⑥---|
45
①①①口 |①---|
口口②口 |②---|
口②口口 |③---|
口③口口 |----|
46
⑥⑥口② |①-②-|
⑥⑥口① |③-④-|
④口⑤⑤ |⑤---|
③口⑤⑤ |⑥---|
47
口口⑤① |①-②-|
口⑥③⑤ |③-④-|
⑦②⑥口 |⑤-⑥-|
④⑦口口 |⑦---|
48
④①⑤口 |①-②-|
①⑥⑧⑤ |③-④-|
口③⑦口 |⑤-⑥-|
口口②口 |⑦-⑧-|
49
②口口② |①---|
口口口口 |--②-|
①口口口 |③---|
③①口③ |----|
50
④口口口 |①-②-|
口②口口 |③-④-|
③口口口 |----|
口①口口 |----|
51
口口⑤① |①-②-|
口⑥③口 |③-④-|
口口⑦② |--⑤-|
口口④口 |⑥-⑦-|
52
口④口口 |①-②-|
②口口口 |③-④-|
口③口口 |----|
①口口口 |----|
53
口口④口 |①-②-|
口③口口 |③-④-|
口口②⑤ |--⑤-|
口①口⑥ |⑥---|
54
①①④② |①-②-|
⑤口口④ |③-④-|
⑦③⑥⑥ |⑤-⑥-|
口口⑧⑧ |⑦-⑧-|
55
①③口① |①---|
口口②口 |②---|
口②③④ |③---|
口④口口 |④---|
56
①口②② |①---|
①口口② |----|
①口②口 |②---|
①口②② |----|
57
①①口口 |①---|
①①口口 |----|
口①口口
①①口口

口口②口
口口口②
④口口③ |--②-|
口④③口 |③-④-|
58
②①口③ |①---|
①口口口 |②-③-|
口口口口
口口口口

口⑦口口
口口口口
口⑤⑥口 |④-⑤-|
④口口口 |⑥-⑦-|
59
口口⑧⑤ |①-②-|
⑦⑥④⑧ |③-④-|
⑥口口③ |⑤-⑥-|
口⑦②① |⑦-⑧-|
60
①①口③ |①---|
口口⑤口 |②-③-|
口④口口 |④-⑤-|
②⑦⑥口 |⑥-⑦-|
61
口③②⑨ |①-②③|
⑦①口⑥ |④⑤⑥⑦|
①⑤④口 |⑧---|
⑨口口⑧ |⑨---|
62
①③④口 |①---|
⑦①①⑤ |②-③④|
口口②① |⑤-⑥-|
⑧口口⑥ |⑦-⑧-|
63
⑧④⑨⑥ |--①②|
口口口⑦ |③-④-|
口①②③ |⑤-⑥⑦|
口口口⑤ |⑧-⑨-|
64
口口口口 |①--②|
④①③口 |③-④-|
口①③口
②①③口

口⑥⑦⑧
口⑨口⑤
口口口⑤ |⑤-⑥⑦|
口口口⑤ |⑧-⑨-|
65
③③③⑥ |①---|
口口②⑥ |②---|
⑤②口④ |③-④-|
⑤①口④ |⑤-⑥-|
66
口口③口 |①---|
口①口口 |②-③-|
口口①口
口②口口

口口口⑥
⑤口口口
口口⑦口 |④-⑤-|
口口④口 |⑥-⑦-|
67
⑤⑥口⑥ |①-②-|
⑦④⑦口 |③-④-|
③⑧口⑧ |⑤-⑥-|
①②口口 |⑦-⑧-|
68
口口③口 |①---|
口口口口 |②-③-|
口口口口
①②①口

⑤口口⑥
口口口口
口口口口 |④-⑤-|
口口⑦④ |⑥-⑦-|
69
口⑦⑥⑨ |①-②③|
①③口② |④⑤⑥⑦|
⑤①④口 |⑧---|
⑨口口⑧ |⑨---|
70
①⑤④口 |①---|
⑥①①③ |②-③-|
②⑦⑦① |④-⑤-|
口口口口 |⑥-⑦-|
71
⑥⑥口① |①-②③|
口⑤⑦⑦ |④-⑤-|
⑧⑧⑨⑨ |⑥-⑦-|
②③④口 |⑧-⑨-|
72
⑥⑦⑧⑨ |①②③④|
⑤⑤口口 |⑤---|
口口⑩⑩ |⑥⑦⑧⑨|
④③②① |⑩---|
73
口口口口 |----|
①口口① |----|
口①①口 |----|
口①①口 |①---|
74
④口③① |①-②-|
⑥④①口 |③-④-|
②⑧⑦口 |⑤-⑥-|
口⑩⑨⑤ |⑦⑧⑨⑩|
75
口⑧⑧⑤ |①-②-|
⑥④①③ |③-④-|
④口口① |⑤-⑥-|
②⑦⑦口 |⑦-⑧-|
76
②口口口 |①-②-|
口口①口 |③-④-|
口④口①
④口口③

口口口口
⑦⑧⑨⑩
口口⑤口 |⑤-⑥-|
口⑥口口 |⑦⑧⑨⑩|
77
④⑤口① |①-②-|
口⑧⑧口 |③-④⑤|
口⑦⑥口 |-⑥⑦-|
③⑨⑨② |⑧-⑨-|
78
口④①⑤ |①-②-|
②⑧⑦口 |③-④-|
④⑩⑨① |⑤-⑥-|
⑥口口③ |⑦⑧⑨⑩|
79
②口⑤⑦ |①-②-|
④⑥⑧① |③-④-|
口⑦口口 |⑤-⑥-|
⑧④①③ |⑦-⑧-|
80
②④⑤⑦ |①-②-|
⑧口口① |③-④-|
④⑥⑨③ |⑤-⑥-|
口⑩①口 |⑦⑧⑨⑩|
81
⑪⑧⑥⑩ |①②③④|
口⑦⑤口 |⑤⑥⑦⑧|
④口口② |⑨-⑩-|
③⑫⑨① |⑪-⑫-|
82
⑩口⑧口 |①-②-|
④⑨⑤⑦ |③-④-|
②④①③ |⑤-⑥-|
⑥口口① |⑦⑧⑨⑩|
83
口④口口 |①-②-|
④口口口 |③-④-|
②口①口
口口③①

口口口⑦
口⑧口口
口⑥口⑤ |⑤-⑥-|
⑦口口⑧ |⑦-⑧-|
84
②口口口 |①-②-|
口口口① |③-④-|
④口①口
口④③口

口⑥口口
⑦⑧⑨⑩
口口口⑤ |⑤-⑥-|
口口口口 |⑦⑧⑨⑩|
85
④⑤口① |①-②-|
口⑧⑧口 |③-④⑤|
口⑦⑥口 |-⑥⑦-|
③⑨⑨② |⑧-⑨-|
86
⑩④①⑤ |①-②-|
口⑨口③ |③-④-|
④⑥⑧① |⑤-⑥-|
②口口⑦ |⑦⑧⑨⑩|
87
口④①⑦ |①-②-|
⑥口⑧③ |③-④-|
④⑦口① |⑤-⑥-|
⑧②⑤口 |⑦-⑧-|
88
⑧⑨⑥口 |①②-③|
⑨①口③ |④-⑤⑥|
④口②⑩ |-⑦⑧-|
口⑤⑩⑦ |⑨-⑩-|
89
⑤口口④ |①-②-|
⑥①②⑥ |③-④⑤|
⑥①②⑥ |----|
③③口口 |⑥---|

不確定度: 0

最終更新:2016年04月21日 01:27