朝色の紙飛行機
かめりあ

BASIC

Level: 4
BPM: 132
Notes: 208

1
口口口口 |----|
口口口口 |----|
口口口口 |----|
口口口口 |----|
2
口口口口 |----|
口口口口 |----|
口口口口 |----|
口口口口 |----|
3
口口口口 |①---|
②口口② |---②|
口口口口 |----|
口①①口 |----|
4
口口口口 |----|
口口口口 |----|
口口口口 |----|
口①口口 |--①-|
5
口口口口 |①---|
②口口② |---②|
口口口口 |----|
口口①口 |----|
6
口口口口 |----|
口口口口 |----|
①口口① |①---|
口口口口 |----|
7
口口口口 |①---|
②口口② |---②|
口口口口 |----|
口①①口 |----|
8
口口口口 |----|
口口口口 |----|
口口口口 |----|
口①口口 |--①-|
9
口口口口 |①---|
②口口② |---②|
口③③口 |----|
口口①口 |--③-|
10
口口口口 |----|
口③口口 |①---|
口口口口 |②---|
①②口① |③---|
11
口口①口 |①---|
口口②口 |②---|
口口③口 |③---|
口口④口 |④---|
12
口①口口 |①---|
口②口口 |②---|
口③口口 |③---|
口④口口 |④---|
13
②口口① |①---|
④口口③ |②---|
口口口口 |③---|
口口口口 |④---|
14
口口口口 |①---|
③口口③ |----|
口①①口 |②---|
②口口② |③---|
15
口①口口 |①---|
口口口口 |②---|
口②口口 |③---|
口口③口 |----|
16
口口①口 |①---|
口口口口 |②---|
口口②口 |③---|
口③口口 |----|
17
①口口口 |①---|
口口口口 |②---|
②口口口 |③---|
口口口③ |----|
18
④口口④ |①---|
口③③口 |②---|
口②②口 |③---|
口①①口 |④---|
19
口口①口 |①---|
口口口口 |②---|
口口②口 |③---|
口③口口 |----|
20
口①口口 |①---|
口口口口 |②---|
口②口口 |③---|
口口③口 |----|
21
口口口① |①---|
口口口口 |②---|
口口口② |③---|
③口口口 |----|
22
口①①口 |①---|
口②②口 |②---|
口③③口 |③---|
④口口口 |④---|
23
①口口③ |①---|
口②口口 |②---|
口口口口 |③---|
口口口④ |④---|
24
口②口口 |①---|
③口口口 |----|
口口①口 |②---|
口口口口 |③---|
25
口口口口 |①---|
口口口口 |----|
①口口口 |----|
口口口② |②---|
26
口口口口 |①---|
口口口口 |----|
口口①口 |----|
口口口② |②---|
27
③口口① |①---|
口口②口 |②---|
口口口口 |③---|
④口口口 |④---|
28
口②口口 |①---|
口口③口 |----|
口①口口 |②---|
口口口口 |③---|
29
口口口口 |①---|
口口口口 |----|
口口口① |----|
口口口口 |----|
30
④口口④ |--①-|
③口口③ |-②--|
②⑤⑤② |③--④|
口①①口 |--⑤-|
31
口①口口 |①---|
口口②口 |②---|
口口口③ |③---|
口④口口 |④---|
32
口口口口 |①---|
口②③口 |②---|
①口口口 |③---|
口口口口 |----|
33
口口口口 |①---|
口口口口 |②---|
口①口口
口口②口

口口口口
口口口③
口④口口 |③---|
口口口口 |④---|
34
口口①口 |①---|
口②口口 |②---|
口口③口 |③---|
口④口口 |④---|
35
口口④口 |①---|
①口口口 |②---|
口②口口 |③---|
口口③口 |④---|
36
口口口口 |①---|
口①口口 |②---|
口③口② |③---|
口口口口 |----|
37
口口④口 |①---|
口口③口 |②---|
口口口口 |③---|
①②口口 |④---|
38
口①口口 |①---|
口②口口 |②---|
口③口口 |③---|
口④口口 |④---|
39
口口口口 |①---|
口②②口 |②---|
口口口口 |③---|
③④口① |④---|
40
口口③口 |①---|
口②口口 |②---|
口口①口 |③---|
口口口口 |----|
41
①口口口 |①---|
口②口口 |②---|
口口③口 |③---|
口④口口 |④---|
42
口①口口 |①---|
②口口口 |②---|
口③口口 |③---|
口口口口 |----|
43
口口口口 |①---|
口①①口 |----|
②口口② |②---|
口口口口 |----|
44
②口口② |①---|
口口口口 |----|
口口口口 |②---|
口①①口 |----|
45
口口口口 |①---|
④①口④ |②---|
口口②口 |③---|
口③口口 |--④-|
46
口①①口 |----|
口口口口 |----|
口口口口 |①---|
口②②口 |②---|
47
口口口④ |①---|
口③③口 |②--③|
①口口② |----|
口口口口 |④---|
48
①口口口 |①---|
口②口口 |②---|
口口③口 |③---|
口口口④ |④---|
49
③口④③ |①---|
口口口口 |②--③|
口口口口 |----|
口①②口 |④---|
50
口①口口 |①---|
口②口口 |②---|
口口口口 |③---|
④④③③ |④---|
51
③口④③ |①---|
口口口口 |②--③|
口②①口 |----|
口口口口 |④---|
52
口口口口 |①---|
①口口口 |②---|
口②口④ |③---|
口口③口 |④---|
53
口口口口 |①---|
③口口③ |②--③|
口①②口 |----|
口④口口 |④---|
54
口口①口 |①---|
口②口口 |②---|
④口口④ |③---|
③口口③ |④---|
55
①口口① |①---|
口口口口 |----|
口口口口 |----|
口口口口 |----|

不確定度: 0

最終更新:2016年04月11日 22:41