朝色の紙飛行機
かめりあ

ADVANCED

Level: 7
BPM: 132
Notes: 419

1
口口口口 |----|
口口口口 |----|
口口口口 |----|
口口口口 |----|
2
口口②口 |----|
口口口口 |----|
口口口口 |----|
口①口口 |①-②-|
3
④口口④ |①--②|
口口口口 |-③-④|
③①①③ |----|
②口口② |----|
4
口口口口 |----|
①口口② |①---|
口口口口 |②---|
③口口口 |--③-|
5
④口口④ |①--②|
口③③口 |-③-④|
口②②口 |----|
口口口① |----|
6
口③③口 |--①-|
口④④口 |-②--|
①口口② |③--④|
口⑤⑤口 |--⑤-|
7
④口口④ |①--②|
口口口口 |-③-④|
③①①③ |----|
②口口② |----|
8
口口口口 |----|
①口口② |①---|
口口口口 |②---|
③口口口 |--③-|
9
④口口④ |①--②|
口③③口 |-③-④|
口②②口
口口口①

口⑥⑥口
口口口口
口口口口 |----|
⑤口口⑤ |⑤-⑥-|
10
口口口⑤ |--①-|
①口口② |②-③-|
口③口口 |④---|
口口口④ |⑤---|
11
①口口口 |①---|
②口口口 |②---|
③口口口 |③---|
④口口口 |④---|
12
口口口口 |①---|
口口口口 |②---|
口口口④ |③---|
口①②③ |④---|
13
⑤④③② |①-②-|
⑥口口① |③-④-|
⑦口口口 |⑤-⑥-|
⑧口口口 |⑦-⑧-|
14
②②③③ |①---|
口①①口 |----|
口口口口 |②---|
③③②② |③---|
15
⑥⑦口⑩ |①-②③|
②③⑨⑧ |④⑤⑥⑦|
口①①口 |⑧⑨-⑩|
口口⑤④ |----|
16
①②口⑦ |--①②|
口口④口 |③-④-|
⑤⑥口口 |⑤⑥-⑦|
口口口③ |----|
17
⑨口⑦⑥ |--①②|
口口②① |③④⑤-|
⑧口口⑤ |⑥⑦-⑧|
③④口口 |---⑨|
18
口③口① |--①-|
口口②口 |②-③-|
口⑤④口 |④---|
口④⑤口 |⑤---|
19
⑥⑦口⑩ |①-②③|
②③⑨⑧ |④⑤⑥⑦|
口口⑤④ |⑧⑨-⑩|
①口口① |----|
20
①②③口 |--①②|
口口口⑧ |③-④⑤|
④⑤口口 |⑥⑦-⑧|
口口⑦⑥ |----|
21
口口②① |--①②|
③④口口 |③④⑤⑥|
口口⑥⑤
口口口口

⑨口⑩⑩
口口口口
口口口口 |⑦⑧-⑨|
⑦⑧口口 |---⑩|
22
③口口口 |--①-|
口②②口 |②-③④|
①①口口
口口口④

口口口口
口口口口
口⑤⑤口 |----|
口口口口 |⑤---|
23
②④③① |①---|
口口口口 |②---|
口⑤⑤口 |③---|
①③④② |④--⑤|
24
①②口① |--①-|
⑦口③口 |--②-|
口口口④ |③-④-|
口⑤⑥口 |⑤⑥-⑦|
25
④口口① |--①-|
口口口口 |----|
口②③口 |----|
口口口口 |②③-④|
26
口口口① |--①-|
口口口口 |----|
②口口② |----|
口口口口 |②---|
27
①③④② |①---|
口口口口 |②---|
口⑤⑤口 |③---|
②④③① |④--⑤|
28
①口口① |--①-|
口口口口 |--②-|
口口口口
②口口②

口口口⑥
口③③口
口④⑤口 |--③-|
口口口口 |④⑤-⑥|
29
①口口口 |--①-|
口口口口 |----|
口口口口 |----|
口口口口 |----|
30
④④③③ |--①-|
②⑤⑤① |-②--|
①⑤⑤② |③--④|
③③④④ |--⑤-|
31
⑤口④口 |①---|
⑥口口① |②③-④|
⑦口口口 |--⑤-|
口②③口 |⑥-⑦-|
32
口③④⑧ |①-②-|
口口口② |③④-⑤|
口⑥⑦口 |-⑥⑦-|
口口①⑤ |--⑧-|
33
①④口口 |①---|
⑦口口口 |②③-④|
⑥③②口 |--⑤-|
⑤口口口 |⑥-⑦-|
34
口④口① |①-②-|
口②口口 |③--④|
口⑥⑤③ |-⑤⑥-|
口口口⑦ |--⑦-|
35
①④①⑤ |①---|
口口口⑥ |②③-④|
口口口⑦ |--⑤-|
口③②口 |⑥-⑦-|
36
④口口口 |①---|
口口口口 |②③-④|
口③②口 |-⑤⑥-|
①⑥⑤口 |----|
37
①⑥口口 |--①-|
口②口口 |②-③-|
⑦口③口 |④⑤-⑥|
口口⑤④ |--⑦-|
38
④④①① |①-②-|
⑦⑥⑤口 |③-④-|
⑦⑥⑤口 |--⑤-|
②②③③ |⑥-⑦-|
39
④口②② |①---|
⑤口③口 |②--③|
⑥口口口 |--④-|
②②口① |⑤-⑥-|
40
口③④⑧ |①-②-|
口口口② |③④-⑤|
口⑥⑦口 |-⑥⑦-|
口口①⑤ |--⑧-|
41
①⑤口口 |①-②-|
⑧口②口 |③④-⑤|
⑦③④口 |--⑥-|
⑥口口口 |⑦-⑧-|
42
口⑤口① |①-②-|
口②口口 |③④-⑤|
口⑦⑥口 |-⑥⑦-|
口④③⑧ |--⑧-|
43
①④①⑤ |①---|
口口口⑥ |②③-④|
口口口⑦ |--⑤-|
口③②口 |⑥-⑦-|
44
④口口口 |①---|
口口口口 |②③-④|
口③②口 |-⑤⑥-|
①⑥⑤口 |----|
45
口⑥口① |--①-|
口口②口 |②-③-|
口③口口 |④⑤-⑥|
④⑤口⑦ |--⑦-|
46
口口口口 |-①②-|
①口口② |----|
①口口② |----|
口口口口 |----|
47
①口⑤口 |①--②|
③口口④ |③④-⑤|
⑥口口口 |⑥---|
⑦口②① |⑦---|
48
口⑤口口 |①---|
口口口口 |②---|
口口口④ |③---|
口①②③ |④-⑤-|
49
口⑦⑥③ |①--②|
①⑤口① |③④-⑤|
口④口口 |⑥---|
②口口口 |⑦---|
50
①口口③ |①---|
②口④⑥ |②---|
③口口口 |③--④|
⑤口口口 |⑤-⑥-|
51
口⑤口口 |①--②|
④口口口 |③④-⑤|
口②①⑦ |⑥---|
口①③⑥ |⑦---|
52
口口口② |①---|
口口口① |②---|
口口口口
口口口口

口④③口
口口口⑤
口口口口 |③---|
口口口口 |④-⑤-|
53
①口⑧⑤ |①--②|
③口口口 |③④-⑤|
⑥口④⑦ |⑥---|
⑦口①② |⑦-⑧-|
54
口②口口 |①-②-|
③口口口 |③-④-|
⑥④口⑥ |⑤---|
⑤①③⑤ |⑥---|
55
口①①口 |①---|
①口口① |----|
口口口口 |----|
口口口口 |----|
56
口口口口 |----|
①口口口 |----|
口口口口 |----|
口口口口 |--①-|
57
口口口口 |①--②|
口④口① |-③-④|
口③口口 |----|
口②口口 |----|
58
口口口口 |----|
口口口口 |----|
①口口口 |----|
口口口口 |--①-|
59
口口口口 |①--②|
口口④口 |-③-④|
口口③① |----|
口口②口 |----|
60
①口口② |--①-|
⑦③口⑥ |②③④⑤|
⑦口④⑥ |--⑥-|
口⑤口口 |⑦---|

不確定度: 0

最終更新:2016年04月11日 22:41