夏色DIARY 俺のjubeat編
猫叉王子 feat.時を駆けるショッチョー

BASIC

Level: 5
BPM: 170
Notes: 297

1
口口口口 |----|
口口口口 |----|
口口口口 |----|
口口口口 |----|
2
①口口② |①---|
口口口口 |----|
口口口口 |②---|
口口口口 |----|
3
口口口口 |①---|
口口口口 |----|
口口口口 |②---|
①口口② |----|
4
①口口② |①---|
口口口口 |----|
口口口口 |②---|
口口口口 |----|
5
口口口口 |①---|
口口口口 |----|
口口口口 |②---|
①口口② |----|
6
口口口口 |①---|
口口口口 |----|
口口口口 |②---|
口①②口 |----|
7
口口口口 |①---|
口口口口 |----|
口①②口 |②---|
口口口口 |----|
8
口口口口 |①---|
口①②口 |----|
口口口口 |②---|
口口口口 |----|
9
口①②口 |①---|
口口口口 |----|
口口口口 |②---|
口口口口 |----|
10
①①②② |①---|
③③口口 |--②-|
口口口口 |----|
口口口口 |--③-|
11
口口口口 |----|
口口①① |--①-|
口②②口 |----|
口口口口 |--②-|
12
口口口口 |----|
口口口口 |----|
口口口口 |----|
口口口口 |----|
13
口口口口 |①---|
口口口口 |②---|
口口口口 |③---|
口③②① |----|
14
口口口⑤ |①---|
口④③口 |②---|
①②口口 |③-④-|
口口口口 |--⑤-|
15
③②①口 |--①-|
口口口口 |--②-|
口口口口 |--③-|
口口口口 |----|
16
⑤口口口 |①---|
口③④口 |②---|
口口②① |③-④-|
口口口口 |--⑤-|
17
口①②③ |--①-|
口口口口 |--②-|
口口口口 |--③-|
口口口口 |----|
18
口口口口 |①---|
①②口口 |②---|
口④③口 |③-④-|
口口口⑤ |--⑤-|
19
口口口口 |--①-|
口口口口 |--②-|
口口口口 |--③-|
③②①口 |----|
20
口口口口 |①---|
口口口口 |--②-|
口②①口
口口口口

口口口口
口③口口
口口④口 |③---|
口口口口 |--④-|
21
口口口口 |①---|
②口①口 |②---|
③口口口 |③---|
④口口口 |④---|
22
口口口⑤ |①---|
口④③口 |②---|
②口口① |③-④-|
口口口口 |--⑤-|
23
口口口口 |--①-|
①口口口 |--②-|
口口口② |--③-|
③口口口 |----|
24
⑤口口口 |①---|
口③④口 |②---|
①口口② |③-④-|
口口口口 |--⑤-|
25
口口口口 |--①-|
口口③① |--②-|
②④口口 |--③-|
口口⑤口 |④-⑤-|
26
口口口④ |①---|
口②口③ |②---|
口⑤⑤口 |③-④-|
口①口口 |--⑤-|
27
④②②③ |--①-|
口①①⑤ |--②-|
口口口口 |--③-|
口口口口 |④-⑤-|
28
口口口口 |①---|
①口口口 |--②-|
口④口口 |③---|
口③②口 |--④-|
29
口口口口 |①---|
口③②口 |--②-|
口口①口 |③---|
口口口口 |----|
30
①①口口 |①---|
口口口④ |----|
口口口③ |--②-|
口口口② |③-④-|
31
口⑤④口 |--①-|
口③⑥口 |②-③-|
口⑦②口 |④-⑤-|
口①口口 |⑥-⑦-|
32
口口口口 |①---|
④口口口 |----|
③口口口 |--②-|
②口①口 |③-④-|
33
口④⑤口 |--①-|
口⑥③口 |②-③-|
口②⑦口 |④-⑤-|
口口①口 |⑥-⑦-|
34
①口⑦口 |①-②-|
口⑥口② |③-④-|
③口⑤口 |--⑤-|
口口口④ |⑥-⑦-|
35
口口口口 |--①-|
①口口② |②-③-|
③口口④ |④---|
口⑤⑤口 |⑤---|
36
⑧⑦⑥⑤ |①-②-|
口④③口 |③-④-|
口②①口 |⑤-⑥-|
口口口口 |⑦-⑧-|
37
口④⑤口 |--①-|
口⑥③口 |②-③-|
口②⑦口 |④-⑤-|
口口①口 |⑥-⑦-|
38
⑤⑥⑦⑧ |①-②-|
口口口④ |③-④-|
③口口② |⑤-⑥-|
口①口口 |⑦-⑧-|
39
④口口⑤ |--①-|
⑥口口③ |②-③-|
②口口⑦ |④-⑤-|
口口口① |⑥-⑦-|
40
口⑦口口 |①-②-|
口⑤⑥口 |③-④-|
口①②口 |--⑤-|
口③④口 |⑥-⑦-|
41
口口口口 |--①-|
口⑤⑤口 |②-③-|
④③②① |④---|
口口口口 |⑤---|
42
口口⑦口 |①-②-|
口⑥口口 |③-④-|
④口⑤③ |--⑤-|
②口口① |⑥-⑦-|
43
口①口口 |--①-|
⑤口②⑤ |②-③-|
口③口口 |④---|
口口④口 |⑤---|
44
口口口④ |①---|
口口口③ |②---|
口口口② |③---|
①口口① |④---|
45
③②①口 |①---|
口口口口 |②---|
口口口口 |③---|
口口口口 |----|
46
④口口口 |①---|
③口口口 |②---|
②口口口 |③---|
①口口口 |④---|
47
口①②③ |①---|
口口口口 |②---|
口口口口 |③---|
口口口口 |----|
48
①口口口 |①---|
②口口口 |②---|
③口口口 |③---|
④口口口 |④---|
49
口口口口 |①---|
口口口口 |②---|
口口口口 |③---|
口①②③ |----|
50
①①②② |①---|
③③口口 |--②-|
口口口口 |----|
口口口口 |③---|
51
口口口口 |--①-|
口口①① |----|
口②②口 |②---|
口口口口 |----|
52
③④②① |①---|
口口口口 |②---|
口口口口 |③---|
口口口口 |④---|
53
口口口口 |①---|
口口口口 |②---|
③④②① |③---|
口口口口 |④---|
54
口口口口 |①---|
口②①口 |②---|
口④③口 |③---|
口口口口 |④---|
55
口口口口 |①---|
②口口① |②---|
④口口③ |③---|
口口口口 |④---|
56
口口口口 |①---|
②口口② |----|
口口口口 |②---|
口①①口 |----|
57
②口口② |①---|
口口口口 |----|
口①①口 |②---|
口口口口 |----|
58
口口口口 |①---|
④③②① |②---|
口口口口 |③---|
口口口口 |④---|
59
口④④口 |①---|
口③③口 |②---|
口②②口 |③---|
口①①口 |④---|
60
口口口口 |①---|
①②④③ |②---|
口口口口 |③---|
口口口口 |④---|
61
口口口口 |①---|
口口口口 |②---|
①②④③ |③---|
口口口口 |④---|
62
口口口口 |①---|
口①②口 |②---|
口③④口 |③---|
口口口口 |④---|
63
口口口口 |①---|
①口口② |②---|
③口口④ |③---|
口口口口 |④---|
64
口口口口 |①---|
②口口② |----|
口口口口 |②---|
口①①口 |----|
65
②口口② |①---|
口口口口 |----|
口①①口 |②---|
口口口口 |----|
66
口口口口 |①---|
①②③④ |②---|
口口口口 |③---|
口口口口 |④---|
67
口④④口 |①---|
口③③口 |②---|
口②②口 |③---|
口①①口 |④---|
68
①口口① |①---|
口口口口 |----|
口口口口 |----|
口口口口 |----|

不確定度: 0

最終更新:2015年12月26日 22:41