neko*neko
日向美ビタースイーツ♪

BASIC

Level: 3
BPM: 123
Notes: 264

1
口口口口 |----|
口口口口 |----|
口口口口 |----|
口口口口 |----|
2
口口口口 |①---|
口①①口 |----|
口①①口 |----|
口口口口 |----|
3
口口口口 |①---|
口口口口 |----|
口口口口 |----|
口①①口 |----|
4
口口口口 |①---|
口①①口 |----|
口①①口 |----|
口口口口 |----|
5
口①①口 |①---|
口口口口 |----|
口口口口 |----|
口口口口 |----|
6
口口口④ |①---|
口口口③ |②---|
口口口② |③---|
口口口① |④---|
7
④口口口 |①---|
③口口口 |②---|
②口口口 |③---|
①口口口 |④---|
8
口口口口 |①-②-|
口①①口 |----|
口②②口 |----|
口口口口 |----|
9
口④口口 |①---|
口口③口 |②---|
口②口口 |③---|
口口①口 |④---|
10
口口口口 |①---|
口口口口 |②---|
④口口③ |③---|
②口口① |④---|
11
②口口① |①---|
④口口③ |②---|
口口口口 |③---|
口口口口 |④---|
12
①口口① |①---|
口②②口 |②---|
③口口③ |③---|
口④④口 |④---|
13
口口口口 |①---|
口口口口 |----|
口①①口 |----|
口口口口 |----|
14
④口口口 |①---|
③口口口 |②---|
②口口口 |③---|
①口口口 |④---|
15
口口口④ |①---|
口口口③ |②---|
口口口② |③---|
口口口① |④---|
16
口口口口 |①-②-|
口①①口 |----|
口②②口 |----|
口口口口 |----|
17
口口④口 |①---|
口③口口 |②---|
口口②口 |③---|
口①口口 |④---|
18
口口口口 |①---|
口口口口 |②---|
③口口④ |③---|
①口口② |④---|
19
①口口② |①---|
③口口④ |②---|
口口口口 |③---|
口口口口 |④---|
20
口④④口 |①---|
③⑤⑤③ |②---|
口②②口 |③---|
①口口① |④-⑤-|
21
口口口口 |----|
口口口口 |----|
口口口口 |----|
口口口口 |----|
22
口口口口 |①---|
口口口口 |②---|
④③口口 |③---|
口口②① |④---|
23
④③口口 |①---|
口口②① |②---|
口口口口 |③---|
口口口口 |④---|
24
口口②① |①---|
④③口口 |②---|
口口口口 |③---|
口口口口 |④---|
25
口口口口 |①---|
口口口口 |②---|
口口②① |③---|
④③口口 |④---|
26
口口②① |①---|
口口④③ |②---|
口口口口 |③---|
口口口口 |④---|
27
①②口口 |①---|
③④口口 |②---|
口口口口 |③---|
口口口口 |④---|
28
口口口口 |①---|
口口口口 |②---|
口④③口 |③---|
口②①口 |④---|
29
口口⑤⑤ |①-②-|
④口口③ |③-④-|
②口口① |⑤---|
口口口口 |----|
30
口口③口 |①---|
④④②口 |②-③-|
①①口口 |----|
口口口口 |④---|
31
口口口口 |①-②-|
口口口口 |----|
口口①口
口口②口

口口口口
口口⑤口
口④③口 |--③-|
口口口口 |④-⑤-|
32
口口口口 |①-②-|
②①⑤⑥ |③-④-|
③口口⑦ |--⑤-|
④口口口 |⑥-⑦-|
33
口口口口 |①---|
口口口口 |----|
口口口口 |----|
口口口① |----|
34
口口口口 |①---|
口①①口 |②---|
口②②口 |----|
口口口口 |----|
35
口口口口 |①---|
口②②口 |②---|
口①①口 |----|
口口口口 |----|
36
口口①① |①---|
口②②口 |----|
口口口口 |②---|
口口口口 |----|
37
口口口口 |①---|
口口口口 |----|
①①口口 |----|
口口口口 |----|
38
口口口口 |①---|
④②④② |②---|
①③①③ |③---|
口口口口 |④---|
39
①口口① |①---|
口口口口 |②---|
口口口口 |----|
②口口② |----|
40
口口口口 |①---|
②④②④ |②---|
③①③① |③---|
口口口口 |④---|
41
①口口① |①---|
口口口口 |②---|
口口口口 |----|
②口口② |----|
42
口口口口 |①---|
④②④② |②---|
①③①③ |③---|
口口口口 |④---|
43
①口口① |①---|
口口⑤口 |②---|
口④口口 |--③-|
②口③② |④-⑤-|
44
⑥口①口 |--①-|
口②口口 |②-③-|
口口③口 |④-⑤-|
口④⑤口 |--⑥-|
45
口口口口 |--①-|
口①口口 |②-③-|
口口②口 |----|
口③口口 |----|
46
口口口口 |①---|
④②④② |②---|
①③①③ |③---|
口口口口 |④---|
47
口①①口 |①---|
口口口口 |②---|
口口口口 |----|
口②②口 |----|
48
口口口口 |①---|
②④②④ |②---|
③①③① |③---|
口口口口 |④---|
49
口①①口 |①---|
口口口口 |②---|
口口口口 |----|
口②②口 |----|
50
口口口口 |①---|
④②④② |②---|
①③①③ |③---|
口口口口 |④---|
51
口①①口 |①---|
口口⑤口 |②---|
口④口口 |--③-|
口②②③ |④-⑤-|
52
口口①口 |--①-|
口②⑥口 |②-③-|
口⑤③口 |--④-|
口口④口 |⑤-⑥-|
53
口口①口 |--①-|
口②口口 |②-③-|
口口③口 |----|
口口口口 |----|
54
口口口口 |①---|
③③口口 |②---|
②口口⑤ |③---|
①口口④ |④-⑤-|
55
⑥口口⑥ |--①-|
口口⑤口 |②-③-|
口④③口 |④-⑤-|
口②①口 |--⑥-|
56
口口口口 |----|
口口口口 |----|
口口口口 |----|
口口口口 |----|
57
口口口口 |----|
口口口口 |----|
口口口口 |----|
口口口口 |----|
58
口口口① |①---|
口口口② |②---|
口口口③ |③---|
口口口④ |④---|
59
①口口口 |①---|
②口口口 |②---|
③口口口 |③---|
④口口口 |④---|

不確定度: 0

最終更新:2016年04月18日 01:48