neko*neko
日向美ビタースイーツ♪

ADVANCED

Level: 6
BPM: 123
Notes: 360

1
口口口口 |----|
口口口口 |----|
口口口口 |----|
口口口口 |----|
2
口口口口 |①---|
口①①口 |----|
口①①口 |----|
口口口口 |----|
3
口口口口 |①---|
口口口口 |----|
口口口口 |----|
①口口① |----|
4
口口口口 |①---|
口①①口 |----|
口①①口 |----|
口口口口 |----|
5
①口口① |①---|
口口口口 |----|
口口口口 |----|
口口口口 |----|
6
口口口口 |--①-|
口口口⑤ |②--③-④|
口④③⑥ |--⑤-|
口②①⑦ |⑥-⑦-|
7
口口口口 |--①-|
⑤口口口 |②--③-④|
⑥③④口 |--⑤-|
⑦①②口 |⑥-⑦-|
8
口①①口 |①-②-|
口口口口 |----|
口②②口 |----|
口口口口 |----|
9
口④口④ |①---|
③口③口 |②---|
口②口② |③---|
①口①口 |④---|
10
口口口口 |①-②-|
④⑤③② |③-④-|
口口⑦⑥ |⑤-⑥-|
口①①口 |⑦---|
11
⑦口口口 |①-②-|
⑤⑥口口 |③-④-|
③④口口 |⑤-⑥-|
①②口口 |⑦---|
12
口口②① |①-②-|
口口④③ |③-④-|
口口⑥⑤ |⑤-⑥-|
口口⑧⑦ |⑦-⑧-|
13
口口口口 |①---|
④口口口 |②---|
③口口口 |③---|
②①口口 |④---|
14
①口口口 |①-②-|
口口口⑥ |③--④-⑤|
口⑤④⑦ |--⑥-|
口③②⑧ |⑦-⑧-|
15
口口口口 |--①-|
⑤口口口 |②--③-④|
⑥③④口 |--⑤-|
⑦①②口 |⑥-⑦-|
16
口①①口 |①-②-|
口口口口 |----|
口②②口 |----|
口口口口 |----|
17
④口④口 |①---|
口③口③ |②---|
②口②口 |③---|
口①口① |④---|
18
口口口口 |①-②-|
②③⑤④ |③-④-|
⑥⑦口口 |⑤-⑥-|
⑧①①口 |⑦-⑧-|
19
口口⑦⑥ |①-②-|
口口⑤口 |③-④-|
口口④③ |--⑤-|
口口②① |⑥-⑦-|
20
①②口口 |①-②-|
③④口口 |③-④-|
口口口口
口口口口

口⑤⑤口
口口口口
口⑥⑥口 |----|
口口口口 |⑤-⑥-|
21
口口口口 |①----②|
口口口① |--③-|
口口口② |----|
口口口③ |----|
22
口口口口 |①-②-|
口⑥⑦口 |③-④-|
④口口⑤ |⑤----⑥|
②①①③ |--⑦-|
23
口①②口 |①----②|
口③④口 |--③-|
口⑤⑤口 |④---|
口口口口 |⑤---|
24
③口口② |①-②-|
⑤口口④ |③-④-|
⑦口口⑥ |⑤-⑥-|
口①①⑧ |⑦-⑧-|
25
口口口口 |--①-|
口口口口 |----|
口口口口 |----|
口①①口 |----|
26
口②③口 |①-②-|
⑥④⑤口 |③-④-|
⑦口口口 |⑤-⑥--⑦|
⑧①①口 |--⑧-|
27
口②①口 |--①-|
口④③⑤ |②-③-|
口口口⑥ |④-⑤-|
口口口⑦ |⑥-⑦-|
28
口口口口 |①-②-|
口③口口 |③---|
口口②口
口①口口

④口口口
口口⑤口
口口⑥口 |④---|
口口口口 |⑤-⑥-|
29
口⑤⑤口 |①-②-|
④②口③ |③-④-|
口①口口 |⑤---|
口口口口 |----|
30
④口口③ |①---|
口⑤口② |②-③-|
口口口口 |----|
口口口① |④-⑤-|
31
口口口口 |①-②-|
口④③口 |----|
①口⑤口 |--③-|
口②口口 |④-⑤-|
32
④口口口 |①-②-|
③口口口 |③-④-|
②⑥⑦⑥ |--⑤-|
①口⑤口 |⑥-⑦-|
33
口口口口 |①---|
口①口① |----|
口口口口 |----|
口口口口 |----|
34
口口①① |①---|
口②②口 |②---|
口口口口 |----|
口口口口 |----|
35
①①口口 |①---|
口②②口 |②---|
口口口口 |----|
口口口口 |----|
36
口口口口 |①---|
口①①① |----|
口口②② |②---|
口口口口 |----|
37
口口口口 |①---|
口口口口 |----|
口口口口 |----|
口口口① |----|
38
③口口① |①-②-|
口③①口 |③-④-|
口⑧⑦口 |⑤-⑥--⑦|
⑥④②⑤ |--⑧-|
39
③口口④ |①-②-|
口③④② |③-④-|
口口口① |----|
口口口口 |----|
40
①口口③ |①-②-|
口①③口 |③-④-|
口⑦⑧口 |⑤-⑥--⑦|
⑤②④⑥ |--⑧-|
41
④口口③ |①-②-|
②④③口 |③-④-|
①口口口 |----|
口口口口 |----|
42
口口③① |①-②-|
口⑤⑥口 |③-④-|
口⑦⑧口 |⑤-⑥--⑦|
口口④② |--⑧-|
43
②④口口 |①-②-|
口口⑦口 |③-④-|
口⑥口口 |--⑤-|
①③⑤口 |⑥-⑦-|
44
①②口口 |--①-|
口③口口 |②-③-|
口口口口
口口口口

口⑥口口
⑥口④口
口口⑤口 |④-⑤-|
口口口口 |--⑥-|
45
口口①口 |--①-|
口②口① |②-③-|
③口②口 |----|
口③口口 |----|
46
①口口③ |①-②-|
口①③口 |③-④-|
口⑦⑧口 |⑤-⑥--⑦|
⑤②④⑥ |--⑧-|
47
④口口③ |①-②-|
②④③口 |③-④-|
①口口口 |----|
口口口口 |----|
48
③口口① |①-②-|
口③①口 |③-④-|
口⑧⑦口 |⑤-⑥--⑦|
⑥④②⑤ |--⑧-|
49
③口口④ |①-②-|
口③④② |③-④-|
口口口① |----|
口口口口 |----|
50
①③口口 |①-②-|
口⑥⑤口 |③-④-|
口⑧⑦口 |⑤-⑥--⑦|
②④口口 |--⑧-|
51
口口④② |①-②-|
口⑦口口 |③-④-|
口口⑥口 |--⑤-|
口⑤③① |⑥-⑦-|
52
口口②① |--①-|
口口③口 |②-③-|
口口口口
口口口口

口口⑥口
口⑤口⑥
④口⑤口 |--④-|
口④口口 |⑤-⑥-|
53
口①口口 |--①-|
①口②口 |②-③-|
口②口③ |----|
口口③口 |----|
54
口口口口 |①---|
口③③③ |②---|
口口②② |③---|
口④⑤① |④-⑤-|
55
口⑥⑥口 |--①-|
③③③口 |②-③-|
②②口口 |④-⑤-|
①⑤④口 |--⑥-|
56
口口口口 |①---|
④口口① |--②-|
口②③口 |③---|
口口口口 |--④-|
57
口口口口 |--①-|
口口口口 |②---|
口②①口 |----|
口口口口 |----|
58
口口口口 |①---|
口①①口 |--②-|
口②口口
口口口口

口口口口
口④④口
口口③口 |③---|
口口口口 |--④-|
59
口口口口 |--①-|
口口口口 |②---|
口②①口 |----|
口口口口 |----|

不確定度: 0

最終更新:2016年04月18日 01:48