neko*neko
日向美ビタースイーツ♪

EXTREME

Level: 8
BPM: 123
Notes: 501

1
口口口口 |----|
口口口口 |----|
口口口口 |----|
口口口口 |----|
2
口口口口 |①-②-|
①口口① |③-④-|
①口④①
口③②口

⑧口⑨口
⑦口⑥口
口⑤口口 |⑤--⑥-⑦|
口口口口 |--⑧⑨--|
3
口⑨口⑧ |①-②-|
口⑥⑤⑦ |③-④-|
口④③口 |⑤--⑥-⑦|
口②①口 |--⑧⑨--|
4
⑧口⑨口 |①-②-|
⑦口⑥口 |③-④-|
①⑤④① |⑤--⑥-⑦|
①③②① |--⑧⑨--|
5
口口口口 |①---|
口口口口 |----|
口口口口
口①①口

口口口口
口口口口
口口口口 |----|
口③②口 |--②③--|
6
③口④口 |--①-|
口⑥口口 |②--③-④|
⑤口⑦② |--⑤-|
口口口① |⑥-⑦-|
7
⑦⑤⑥④ |--①-|
③口口口 |②--③-④|
②口口口 |--⑤-|
①口口口 |⑥-⑦-|
8
口口口口 |①②③-|
口①①口 |----|
口②②口 |----|
口③③口 |----|
9
⑥⑥口⑤ |①---|
③口④④ |②----③|
口②②口 |④----⑤|
口①①口 |⑥---|
10
口口口口 |①-②③-④|
口①口口 |⑤-⑥⑦-⑧|
口⑤⑧④
⑦③⑥②

口⑬⑭⑫
口⑪口⑩
⑨口口口 |⑨-⑩⑪-⑫|
口口口口 |⑬-⑭---|
11
口口口口 |①-②③-④|
口口①口 |⑤-⑥⑦-⑧|
④⑧⑤口
②⑥③⑦

⑫口⑬口
⑩口⑪口
口口口⑨ |⑨-⑩⑪-⑫|
口口口口 |⑬---|
12
口口口口 |①②③④|
口①口口 |⑤⑥⑦⑧|
口⑦⑥⑧
③⑤④②

口⑮⑭⑯
⑪⑬⑫⑩
⑨口口口 |⑨⑩⑪⑫|
口口口口 |⑬⑭⑮⑯|
13
①口口口 |①---|
口口口② |②---|
③①口口 |③---|
口口口④ |④---|
14
口⑤口④ |①-②-|
口口⑦口 |③--④-⑤|
③⑧口⑥ |--⑥-|
②①①口 |⑦-⑧-|
15
④⑥⑤⑦ |--①-|
口口口③ |②--③-④|
口口口② |--⑤-|
口口口① |⑥-⑦-|
16
口口口口 |①②③-|
口①①口 |----|
口②②口 |----|
口③③口 |----|
17
⑤口⑥⑥ |①---|
④④口③ |②----③|
口②②口 |④----⑤|
口①①口 |⑥---|
18
口口口口 |①-②③-④|
口口①口 |⑤-⑥⑦-⑧|
④⑧⑤口
②⑥③⑦

⑫口⑬⑭
⑩口⑪口
口口口⑨ |⑨-⑩⑪-⑫|
⑮口口口 |⑬--⑭-⑮|
19
口口口口 |①-②③-④|
⑦口口口 |⑤--⑥-⑦|
②口③⑥
口④①⑤

口⑨⑧⑩
口口口口
口口口口 |---⑧-⑨|
⑪口⑫口 |⑩-⑪⑫--|
20
⑧口口口 |①-②③-④|
⑥口⑦口 |⑤-⑥⑦-⑧|
口④①⑤
口②口③

口⑩⑨口
口口口口
口⑪⑪口 |-----⑨|
口口口口 |⑩-⑪-|
21
口口口口 |①----②|
口口口① |--③-|
口口口② |----|
④口口③ |④---|
22
口口口口 |①-②-|
①口口口 |③-④-|
口④口口
口口③②

⑦口口口
⑥口口口
⑤口口口 |⑤----⑥|
口口口口 |--⑦-|
23
口口口① |①----②|
口④④② |--③-|
口口口③ |④---|
口⑤⑤口 |⑤---|
24
口③②口 |①-②-|
口⑤④口 |③-④-|
口⑦⑥口 |⑤-⑥-|
①口⑧口 |⑦-⑧-|
25
④⑤口口 |--①-|
⑥③⑦口 |②-③-|
②口口口 |④-⑤-|
口①口① |⑥-⑦---|
26
②口口口 |①-②-|
口③口口 |③-④-|
口口④口
口①①口

口口口口
口⑧口⑦
口口口口 |⑤-⑥--⑦|
口⑥口⑤ |--⑧-|
27
④口口① |--①-|
口⑤②口 |②-③-|
⑥口口③ |④-⑤-|
口⑦口口 |⑥-⑦-|
28
口口④④ |①-②-|
口口③口 |③---|
⑥⑤②口 |④---|
口口①口 |⑤-⑥-|
29
口口口口 |①-②-|
⑤⑤⑤口 |③-④-|
口口④口 |⑤---|
①②③口 |----|
30
口口②② |①---|
口③③口 |②-③-|
口口⑤④ |----|
口①①口 |④-⑤-|
31
口口口口 |①-②-|
口口口⑤ |----|
①②口④ |--③-|
口口口③ |④-⑤-|
32
①口口口 |①-②-|
口②口口 |③-④-|
③⑥⑦⑥ |--⑤-|
口④⑤口 |⑥-⑦-|
33
口口口口 |①---|
口①口① |②---|
口口口口 |③---|
②③④口 |④---|
34
口口①① |①---|
口②②口 |②---|
口口口口 |----|
口口口③ |③---|
35
①①口口 |①---|
口②②口 |②---|
口口口口 |----|
③口口口 |③---|
36
口口口口 |①---|
①①①口 |----|
②②口口 |②---|
口口口口 |----|
37
口口口口 |①---|
口口口口 |----|
口口口口
①口口口

口口口口
③口口②
④口口⑤ |②--③-④|
⑥口口口 |⑤-⑥---|
38
①③①③ |①-②-|
口①③口 |③-④-|
口⑦⑥口 |⑤-⑥--⑦|
⑧④②⑤ |--⑧-|
39
③口③口 |①-②-|
口③口② |③-④-|
④口④① |----|
⑤④口⑤ |⑤---|
40
③①③① |①-②-|
口③①口 |③-④-|
口⑥⑦口 |⑤-⑥--⑦|
⑤②④⑧ |--⑧-|
41
口③口③ |①-②-|
②口③口 |③-④-|
①④口④
口口④口

⑦口口口
口口口口
⑥口口口 |⑤-⑥-|
⑤口口口 |--⑦---|
42
口口③① |①-②-|
口口③① |③-④-|
口口口口
口口④②

口口口口
口⑦⑧口
口⑤⑥口 |⑤-⑥--⑦|
口口口口 |--⑧-|
43
口②③口 |①-②-|
①口口④ |③-④-|
口口口口
口口口口

⑦口⑦口
口口口口
口⑥口⑥ |--⑤-|
⑤口⑤口 |⑥-⑦-|
44
⑥口⑥② |--①-|
③①①口 |②-③-|
口口口④ |④-⑤-|
⑤口口口 |--⑥-|
45
口口口口 |--①-|
①口①口 |②-③-|
口②口②
③口③口

口口口口
口口口④
口口口⑤ |--④-|
口口口口 |--⑤-|
46
①③①③ |①-②-|
口①③口 |③-④-|
口⑦⑥口 |⑤-⑥--⑦|
⑧④②⑤ |--⑧-|
47
③口③口 |①-②-|
口③口② |③-④-|
④口④① |----|
⑤④口⑤ |⑤---|
48
③①③① |①-②-|
口③①口 |③-④-|
⑨⑥⑦口 |⑤-⑥--⑦|
⑤②④⑧ |---⑧-⑨|
49
②③口③ |①-②-|
①口③口 |③-④-|
口④口④
口口④口

⑦口口口
口口口口
⑥口口口 |⑤-⑥-|
⑤口口口 |--⑦---|
50
口口③① |①-②-|
口口③① |③-④-|
口口口口
口口④②

口口口口
口⑦⑧口
⑨⑤⑥口 |⑤-⑥--⑦|
口口口口 |---⑧-⑨|
51
口②③口 |①-②-|
①口口④ |③-④-|
口口口口
口口口口

口⑦口⑦
口口口口
⑥口⑥口 |--⑤-|
口⑤口⑤ |⑥-⑦-|
52
②口口口 |--①-|
口①①③ |②-③-|
口口口口
口口口口

⑥口⑥口
口口口口
口⑤口⑤ |--④-|
口④口④ |⑤-⑥-|
53
④口口④ |--①-|
口①口① |②-③-|
②口②口 |----|
口③口③ |④---|
54
口口口口 |①---|
口③③③ |②---|
口口②② |③---|
口④⑤① |④-⑤-|
55
⑥⑥⑥⑥ |--①-|
③③③口 |②-③-|
②②口口 |④-⑤-|
①⑤④口 |--⑥-|
56
口口口口 |①---|
④口口① |--②-|
口口口② |③---|
口口口③ |--④-|
57
口口口口 |--①-|
口口口口 |②---|
①口口口 |----|
②口口口 |----|
58
口口口口 |①---|
④①①④ |--②-|
口②②口 |③---|
口③③口 |--④-|
59
口口口口 |--①-|
口口口口 |②---|
①口口① |----|
②口口② |----|

不確定度: 0

最終更新:2016年04月18日 01:47