炎のDiargos
Mutsuhiko Izumi

BASIC

Level: 4
BPM: 230
Notes: 303

1
口口口口 |----|
口口口口 |----|
口口口口 |----|
口口口口 |----|
2
口口口口 |----|
口口口口 |----|
口口口口 |----|
口口口口 |----|
3
口口口口 |①---|
①口口口 |----|
口口口口 |----|
口口口口 |----|
4
口口口口 |①---|
口①口口 |----|
口口口口 |----|
口口口口 |----|
5
口口口口 |①---|
口口口① |----|
口口口口 |----|
口口口口 |----|
6
口口口口 |①---|
口口①口 |----|
口口口口 |----|
口口口口 |----|
7
口口口口 |①---|
口口口口 |----|
①口口口 |----|
口口口口 |----|
8
口口口口 |①---|
口口口口 |----|
口①口口 |----|
口口口口 |----|
9
口口口口 |①---|
口口口口 |----|
口口口① |----|
口口口口 |----|
10
口口口口 |①---|
口口口口 |----|
口口①口 |----|
口口口口 |----|
11
口口口口 |①---|
口口口口 |----|
①②口口 |②---|
口口口口 |----|
12
口③③口 |①---|
口②②口 |--②-|
口口①口 |--③-|
口口口口 |----|
13
口口口口 |①---|
口口口口 |----|
口口②① |②---|
口口口口 |----|
14
口口口口 |①---|
口②②口 |--②-|
口①口口 |----|
口口口口 |----|
15
口口口口 |①---|
口口口口 |----|
①②口口 |②---|
口口口口 |----|
16
口③③口 |①---|
口②②口 |--②-|
口口①口 |--③-|
口口口口 |----|
17
口口口口 |①---|
口口口口 |----|
口口②① |②---|
口口口口 |----|
18
口口口口 |①---|
口②②口 |--②-|
口①口口 |----|
口口口口 |----|
19
口口口口 |①---|
口口口口 |②---|
③口口④ |③---|
①口口② |④---|
20
③口口④ |①---|
①口口② |②---|
口口口口 |③---|
口口口口 |④---|
21
口口口口 |①---|
口口口口 |②---|
口③④口 |③---|
口①②口 |④---|
22
口③口口 |①---|
口①②口 |②---|
口口口口 |③---|
口口口口 |----|
23
口口口口 |①---|
①口口口 |--②-|
口②口口 |----|
口口③口 |③---|
24
口口口口 |----|
口口口口 |----|
口口口口 |----|
口口口口 |----|
25
口口口口 |①---|
口口口① |--②-|
口口②口 |----|
口③口口 |③---|
26
口口口口 |----|
口口口口 |----|
口口口口 |----|
口口口口 |----|
27
口口口口 |①---|
①口口口 |--②-|
口②口口 |----|
口口③口 |③---|
28
口口口口 |①---|
口口口③ |--②-|
口口②口 |----|
口①口口 |③---|
29
①口口口 |①---|
口②口口 |--②-|
口口③口 |----|
口口口口 |③---|
30
口口口口 |----|
口口口口 |----|
口口口口 |----|
口口口口 |----|
31
口口口口 |①---|
口口口① |--②-|
口口②口 |----|
口③口口 |③---|
32
口口口口 |----|
口口口口 |----|
口口口口 |----|
口口口口 |----|
33
口口口口 |①---|
①口口口 |--②-|
口②口口 |----|
口口③口 |③---|
34
口口口口 |----|
口口口口 |----|
口口口口 |----|
口口口口 |----|
35
口口口口 |①---|
口口口① |--②-|
口口②口 |----|
口③口口 |③---|
36
口口口口 |①---|
③口口口 |--②-|
口②口口 |----|
口口①口 |③---|
37
口口口① |①---|
口口②口 |--②-|
口③口口 |----|
口口口口 |③---|
38
口口口口 |----|
口口口口 |----|
口口口口 |----|
口口口口 |----|
39
口口口口 |----|
口口口口 |①---|
口口③口 |②---|
口②①口 |③---|
40
口口口口 |①---|
口②②口 |--②-|
口①口口 |----|
口口口口 |----|
41
口口口口 |----|
口口口口 |①---|
口③口口 |②---|
口①②口 |③---|
42
口口口口 |①---|
口②②口 |--②-|
口口①口 |----|
口口口口 |----|
43
口口口口 |①---|
①口口口 |--②-|
口②口口 |----|
口口③口 |③---|
44
口口口口 |①---|
口口口③ |--②-|
口口②口 |----|
口①口口 |③---|
45
口口口口 |①---|
口①①口 |----|
口口口口 |----|
口口口口 |----|
46
口①①口 |①---|
口口口口 |----|
口口口口 |----|
口口口口 |----|
47
口口口口 |----|
口口口口 |①---|
口口③口 |②---|
口②①口 |③---|
48
口口口口 |①---|
口②②口 |--②-|
口①口口 |----|
口口口口 |----|
49
口口口口 |----|
口口口口 |①---|
口③口口 |②---|
口①②口 |③---|
50
口口口口 |①---|
口②②口 |--②-|
口口①口 |----|
口口口口 |----|
51
口口口口 |①---|
①口口口 |--②-|
口②口口 |----|
口口③口 |③---|
52
口口口口 |①---|
口口口③ |--②-|
口口②口 |----|
口①口口 |③---|
53
口口口口 |①---|
口①①口 |----|
口口口口 |----|
口口口口 |----|
54
口①①口 |①---|
口口口口 |----|
口口口口 |----|
口口口口 |----|
55
口口口口 |①---|
①口口① |----|
口口口口 |----|
口口口口 |----|
56
①口口① |①---|
口口口口 |----|
口口口口 |----|
口口口口 |----|
57
口口口口 |①---|
口口口口 |----|
①②口口 |②---|
口口口口 |----|
58
口③③口 |①---|
口②②口 |--②-|
口口①口 |--③-|
口口口口 |----|
59
口口口口 |①---|
口口口口 |----|
口口②① |②---|
口口口口 |----|
60
口口口口 |①---|
口②②口 |--②-|
口①口口 |----|
口口口口 |----|
61
口口口口 |①---|
口口口口 |----|
①②口口 |②---|
口口口口 |----|
62
口③③口 |①---|
口②②口 |--②-|
口口①口 |--③-|
口口口口 |----|
63
口口口口 |①---|
口口口口 |----|
口口②① |②---|
口口口口 |----|
64
口口口口 |①---|
口②②口 |--②-|
口①口口 |----|
口口口口 |----|
65
口口口口 |①---|
口口口口 |----|
①②口口 |②---|
①②口口 |----|
66
口口口口 |①---|
口口口口 |----|
口口①② |②---|
口口①② |----|
67
口口②① |①---|
口口②① |----|
口口口口 |②---|
口口口口 |----|
68
②①口口 |①---|
②①口口 |----|
口口口口 |②---|
口口口口 |----|
69
口口口口 |①---|
口②②口 |--②-|
口①①口 |----|
口口口口 |----|
70
口口口口 |①---|
②口口② |--②-|
①口口① |----|
口口口口 |----|
71
口口口口 |①---|
口口口口 |----|
口①②口 |②---|
口口口口 |----|
72
口①①口 |--①-|
口②②口 |--②-|
口口口口 |----|
口口口口 |----|
73
口口口口 |①---|
口口口口 |----|
①②口口 |②---|
①②口口 |----|
74
口口口口 |①---|
口口口口 |----|
口口①② |②---|
口口①② |----|
75
口口②① |①---|
口口②① |----|
口口口口 |②---|
口口口口 |----|
76
②①口口 |①---|
②①口口 |----|
口口口口 |②---|
口口口口 |----|
77
口口口口 |①---|
口②②口 |--②-|
口①①口 |----|
口口口口 |----|
78
口口口口 |①---|
②口口② |--②-|
①口口① |----|
口口口口 |----|
79
口口口口 |①---|
口口口口 |----|
口①②口 |②---|
口口口口 |----|
80
口①①口 |--①-|
口②②口 |--②-|
口口口口 |----|
口口口口 |----|
81
口口口口 |----|
口口口口 |①---|
口口③口 |②---|
口②①口 |③---|
82
口口口口 |①---|
口②②口 |--②-|
口①口口 |----|
口口口口 |----|
83
口口口口 |----|
口口口口 |①---|
口③口口 |②---|
口①②口 |③---|
84
口口口口 |①---|
口②②口 |--②-|
口口①口 |----|
口口口口 |----|
85
口口口口 |①---|
①口口口 |--②-|
口②口口 |----|
口口③口 |③---|
86
口口口口 |①---|
口口口③ |--②-|
口口②口 |----|
口①口口 |③---|
87
口口口口 |①---|
口①①口 |----|
口口口口 |----|
口口口口 |----|
88
口①①口 |①---|
口口口口 |----|
口口口口 |----|
口口口口 |----|
89
口口口口 |----|
口口口口 |①---|
口口③口 |②---|
口②①口 |③---|
90
口口口口 |①---|
口②②口 |--②-|
口①口口 |----|
口口口口 |----|
91
口口口口 |----|
口口口口 |①---|
口③口口 |②---|
口①②口 |③---|
92
口口口口 |①---|
口②②口 |--②-|
口口①口 |----|
口口口口 |----|
93
口口口口 |①---|
①口口口 |--②-|
口②口口 |----|
口口③口 |③---|
94
口口口口 |①---|
口口口③ |--②-|
口口②口 |----|
口①口口 |③---|
95
口口口口 |①---|
口①①口 |----|
口口口口 |----|
口口口口 |----|
96
口①①口 |①---|
口口口口 |----|
口口口口 |----|
口口口口 |----|
97
口口口口 |①---|
①口口① |----|
口口口口 |----|
口口口口 |----|
98
①口口① |①---|
口口口口 |----|
口口口口 |----|
口口口口 |----|
99
口口口口 |①---|
口口口口 |----|
①②口口 |②---|
口口口口 |----|
100
口③③口 |①---|
口②②口 |--②-|
口口①口 |--③-|
口口口口 |----|
101
口口口口 |①---|
口口口口 |----|
口口②① |②---|
口口口口 |----|
102
口口口口 |①---|
口②②口 |--②-|
口①口口 |----|
口口口口 |----|
103
口口口口 |①---|
口口口口 |----|
①②口口 |②---|
口口口口 |----|
104
口③③口 |①---|
口②②口 |--②-|
口口①口 |--③-|
口口口口 |----|
105
口口口口 |①---|
口口口口 |----|
口口②① |②---|
口口口口 |----|
106
口口口口 |①---|
口②②口 |--②-|
口①口口 |----|
口口口口 |----|
107
口口口口 |①---|
口口口口 |②---|
③口口④ |③---|
①口口② |④---|
108
③口口④ |①---|
①口口② |②---|
口口口口 |③---|
口口口口 |④---|
109
口口口口 |①---|
口口口口 |②---|
口③④口 |③---|
口①②口 |④---|
110
口②②口 |①---|
口①口口 |--②-|
口口口口 |----|
口口口口 |----|
111
口口口口 |①---|
①口口口 |--②-|
口②口口 |----|
口口③口 |③---|
112
口口口口 |--①-|
口口②口 |----|
口口口① |②---|
口口口口 |----|
113
口②①口 |①---|
口口口口 |②---|
口口口口 |----|
口口口口 |----|

不確定度: 0

最終更新:2015年08月25日 00:20