炎のDiargos
Mutsuhiko Izumi

ADVANCED

Level: 8
BPM: 230
Notes: 653

1
口口口口 |----|
口口口口 |----|
口口口口 |----|
口口口口 |----|
2
口口口口 |----|
口口口口 |----|
口口口口 |----|
口口口口 |----|
3
口口口口 |①-②-|
口③⑥口 |③-④-|
口⑤②⑧ |⑤-⑥-|
⑦①④口 |⑦-⑧-|
4
口口口⑤ |①-②-|
①口口④ |③-④-|
③口口口 |--⑤-|
口口口② |----|
5
口口口口 |①-②-|
口⑥③口 |③-④-|
⑧②⑤口 |⑤-⑥-|
口④①⑦ |⑦-⑧-|
6
口口口口 |①-②-|
④口口① |③-④-|
口口口③ |----|
②口口口 |----|
7
口口口口 |①-②-|
口③⑥口 |③-④-|
口⑤②⑧ |⑤-⑥-|
⑦①④口 |⑦-⑧-|
8
口口口⑤ |①-②-|
①口口④ |③-④-|
③口口口 |--⑤-|
口口口② |----|
9
口口口口 |①-②-|
口⑥③口 |③-④-|
⑧②⑤口 |⑤-⑥-|
口④①⑦ |⑦-⑧-|
10
口口口口 |①-②-|
④口口① |③-④-|
口口口③ |----|
②口口口 |----|
11
口口口口 |①-②-|
口③⑥口 |③-④-|
口⑤②⑧ |⑤-⑥-|
⑦①④口 |⑦-⑧-|
12
口口口⑤ |①-②-|
①口口④ |③-④-|
③口口口 |--⑤-|
口口口② |----|
13
口口口口 |①-②-|
口⑥③口 |③-④-|
⑧②⑤口 |⑤-⑥-|
口④①⑦ |⑦-⑧-|
14
口口口口 |①-②-|
④口口① |③-④-|
口口口③ |----|
②口口口 |----|
15
口口口口 |①-②-|
口③⑥口 |③-④-|
口⑤②⑧ |⑤-⑥-|
⑦①④口 |⑦-⑧-|
16
口口口⑤ |①-②-|
①口口④ |③-④-|
③口口口 |--⑤-|
口口口② |----|
17
口口口口 |①-②-|
口⑥③口 |③-④-|
⑧②⑤口 |⑤-⑥-|
口④①⑦ |⑦-⑧-|
18
口口口口 |①-②-|
④口口① |③-④-|
口口口③ |----|
②口口口 |----|
19
口①①口 |①---|
口口口② |②---|
口口口③ |③---|
口口口④ |④---|
20
口口口口 |①---|
口口口口 |②---|
④口口口 |③---|
③②①口 |④---|
21
②③④口 |①---|
①口口口 |②---|
口口口口 |③---|
口口口口 |④---|
22
口口口口 |①-②-|
口①②口 |--③-|
口③③⑥ |--④-|
⑤口口④ |⑤-⑥-|
23
①口口口 |①---|
口①口② |--②-|
③口②口 |----|
口③口口 |③---|
24
口口口口 |----|
口口口口 |----|
③口口口 |--①-|
①口口② |②-③-|
25
口口③① |①---|
②③①口 |--②-|
口②③口 |----|
口③口口 |③---|
26
口口口口 |----|
口口口口 |----|
③口口口 |--①-|
①口口② |②-③-|
27
口口口① |①---|
②口①口 |--②-|
口②口③ |----|
口口③口 |③---|
28
①口口口 |①---|
口①口② |--②-|
③口②口 |----|
口③口口 |③---|
29
①①①① |①---|
②②②② |--②-|
③③③③ |----|
口口口口 |③---|
30
口口口口 |----|
口口口口 |----|
口口口③ |--①-|
②口口① |②-③-|
31
①口口口 |①---|
口①口② |--②-|
③口②口 |----|
口③口口 |③---|
32
口口口口 |----|
口口口口 |----|
③口口口 |--①-|
①口口② |②-③-|
33
口口③① |①---|
②③①口 |--②-|
口②③口 |----|
口③口口 |③---|
34
口口口口 |----|
口口口口 |----|
③口口口 |--①-|
①口口② |②-③-|
35
口口口① |①---|
②口①口 |--②-|
口②口③ |----|
口口③口 |③---|
36
①口口口 |①---|
口①口② |--②-|
③口②口 |----|
口③口口 |③---|
37
①①①① |①---|
②②②② |--②-|
③③③③ |----|
口口口口 |③---|
38
口口口口 |----|
口口口口 |----|
口口口口 |----|
口口口口 |----|
39
口口口口 |----|
口口口③ |①---|
口口口② |②---|
口口口① |③---|
40
口①①口 |①---|
口口口口 |--②-|
口②②口 |----|
口口口口 |----|
41
③口口口 |----|
②口口口 |①---|
①口口口 |②---|
口口口口 |③---|
42
口口口口 |①---|
口②②口 |--②-|
口口口口 |----|
口①①口 |----|
43
口①①口 |①---|
口口②① |--②-|
②②③③ |----|
口③口口 |③---|
44
口口①口 |①---|
①①②② |--②-|
口②③口 |----|
③③口口 |③---|
45
口口口口 |①---|
口口口口 |----|
①口口① |----|
口口口口 |----|
46
①①①① |①---|
口口口口 |----|
口口口口 |----|
口口口口 |----|
47
口口口口 |----|
口口口③ |①---|
口口口② |②---|
口口口① |③---|
48
口①①口 |①---|
口口口口 |--②-|
口②②口 |----|
口口口口 |----|
49
③口口口 |----|
②口口口 |①---|
①口口口 |②---|
口口口口 |③---|
50
口口口口 |①---|
口②②口 |--②-|
口口口口 |----|
口①①口 |----|
51
口①①口 |①---|
口口②① |--②-|
②②③③ |----|
口③口口 |③---|
52
口口①口 |①---|
①①②② |--②-|
口②③口 |----|
③③口口 |③---|
53
③④口口 |①---|
②口口口 |②---|
①口口① |③---|
口口口口 |④---|
54
口口①② |①---|
口口口③ |②---|
口口口④ |③---|
口口口口 |④---|
55
口口口口 |①---|
口口口口 |②---|
口口口口 |③---|
④③②① |④---|
56
⑥⑦⑦⑤ |①-②-|
④口口③ |③-④-|
②口口① |⑤-⑥-|
口口口口 |⑦---|
57
口口口口 |①-②-|
口③⑥口 |③-④-|
口⑤②⑧ |⑤-⑥-|
⑦①④口 |⑦-⑧-|
58
口口口⑤ |①-②-|
①口口④ |③-④-|
③口口口 |--⑤-|
口口口② |----|
59
口口口口 |①-②-|
口⑥③口 |③-④-|
⑧②⑤口 |⑤-⑥-|
口④①⑦ |⑦-⑧-|
60
口口口口 |①-②-|
④口口① |③-④-|
口口口③ |----|
②口口口 |----|
61
口口口口 |①-②-|
口③⑥口 |③-④-|
口⑤②⑧ |⑤-⑥-|
⑦①④口 |⑦-⑧-|
62
口口口⑤ |①-②-|
①口口④ |③-④-|
③口口口 |--⑤-|
口口口② |----|
63
口口口口 |①-②-|
口⑥③口 |③-④-|
⑧②⑤口 |⑤-⑥-|
口④①⑦ |⑦-⑧-|
64
口口口口 |①-②-|
④口口① |③-④-|
口口口③ |----|
②口口口 |----|
65
⑥⑦⑤④ |--①-|
口③口口 |②-③-|
口口②口 |④-⑤-|
口①口口 |⑥-⑦-|
66
口口口口 |--①-|
④⑤口③ |②-③-|
②口⑦⑥ |④-⑤-|
口口口① |⑥-⑦-|
67
口②①口 |--①-|
口口③口 |②-③-|
口④口口 |④-⑤-|
⑥口⑤口 |--⑥-|
68
口④⑤口 |--①-|
口⑥⑦③ |②-③-|
②口口口 |④-⑤-|
口口口① |⑥-⑦-|
69
③口口③ |①---|
口口口⑥ |②-③-|
⑤②②口 |--④-|
口①①④ |⑤-⑥-|
70
③口口③ |①---|
口口口⑥ |②-③-|
⑤②②口 |--④-|
口①①④ |⑤-⑥-|
71
口口口口 |①-②-|
①②③口 |③-④-|
口⑥⑤④ |⑤-⑥-|
⑦⑧口口 |⑦-⑧-|
72
①口口① |--①-|
②口口② |--②-|
口口口口 |----|
口口口口 |----|
73
⑥⑦⑤④ |--①-|
口③口口 |②-③-|
口口②口 |④-⑤-|
口①口口 |⑥-⑦-|
74
口口口口 |--①-|
④⑤口③ |②-③-|
②口⑦⑥ |④-⑤-|
口口口① |⑥-⑦-|
75
口②①口 |--①-|
口口③口 |②-③-|
口④口口 |④-⑤-|
⑥口⑤口 |--⑥-|
76
口④⑤口 |--①-|
口⑥⑦③ |②-③-|
②口口口 |④-⑤-|
口口口① |⑥-⑦-|
77
③口口③ |①---|
口口口⑥ |②-③-|
⑤②②口 |--④-|
口①①④ |⑤-⑥-|
78
③口口③ |①---|
口口口⑥ |②-③-|
⑤②②口 |--④-|
口①①④ |⑤-⑥-|
79
口口口口 |①-②-|
①②③口 |③-④-|
口⑥⑤④ |⑤-⑥-|
⑦⑧口口 |⑦-⑧-|
80
①口口① |--①-|
②口口② |--②-|
口口口口 |----|
口口口口 |----|
81
口口口口 |----|
口口口③ |①---|
口口口② |②---|
口口口① |③---|
82
口①①口 |①---|
口口口口 |--②-|
口②②口 |----|
口口口口 |----|
83
③口口口 |----|
②口口口 |①---|
①口口口 |②---|
口口口口 |③---|
84
口口口口 |①---|
口②②口 |--②-|
口口口口 |----|
口①①口 |----|
85
口①①口 |①---|
口口②① |--②-|
②②③③ |----|
口③口口 |③---|
86
口口①口 |①---|
①①②② |--②-|
口②③口 |----|
③③口口 |③---|
87
口口口口 |①---|
口口口口 |----|
①口口① |----|
口口口口 |----|
88
①①①① |①---|
口口口口 |----|
口口口口 |----|
口口口口 |----|
89
口口口口 |----|
口口口③ |①---|
口口口② |②---|
口口口① |③---|
90
口①①口 |①---|
口口口口 |--②-|
口②②口 |----|
口口口口 |----|
91
③口口口 |----|
②口口口 |①---|
①口口口 |②---|
口口口口 |③---|
92
口口口口 |①---|
口②②口 |--②-|
口口口口 |----|
口①①口 |----|
93
口①①口 |①---|
口口②① |--②-|
②②③③ |----|
口③口口 |③---|
94
口口①口 |①---|
①①②② |--②-|
口②③口 |----|
③③口口 |③---|
95
③④口口 |①---|
②口口口 |②---|
①口口① |③---|
口口口口 |④---|
96
口口①② |①---|
口口口③ |②---|
口口口④ |③---|
口口口口 |④---|
97
口口口口 |①---|
口口口口 |②---|
口口口口 |③---|
④③②① |④---|
98
⑥⑦⑦⑤ |①-②-|
④口口③ |③-④-|
②口口① |⑤-⑥-|
口口口口 |⑦---|
99
口口口口 |①-②-|
口③⑥口 |③-④-|
口⑤②⑧ |⑤-⑥-|
⑦①④口 |⑦-⑧-|
100
口口口⑤ |①-②-|
①口口④ |③-④-|
③口口口 |--⑤-|
口口口② |----|
101
口口口口 |①-②-|
口⑥③口 |③-④-|
⑧②⑤口 |⑤-⑥-|
口④①⑦ |⑦-⑧-|
102
口口口口 |①-②-|
④口口① |③-④-|
口口口③ |----|
②口口口 |----|
103
口口口口 |①-②-|
口③⑥口 |③-④-|
口⑤②⑧ |⑤-⑥-|
⑦①④口 |⑦-⑧-|
104
口口口⑤ |①-②-|
①口口④ |③-④-|
③口口口 |--⑤-|
口口口② |----|
105
口口口口 |①-②-|
口⑥③口 |③-④-|
⑧②⑤口 |⑤-⑥-|
口④①⑦ |⑦-⑧-|
106
口口口口 |①-②-|
④口口① |③-④-|
口口口③ |----|
②口口口 |----|
107
口①①口 |①---|
口口口② |②---|
口口口③ |③---|
口口口④ |④---|
108
口口口口 |①---|
口口口口 |②---|
④口口口 |③---|
③②①口 |④---|
109
②③④口 |①---|
①口口口 |②---|
口口口口 |③---|
口口口口 |④---|
110
口口口口 |①-②-|
口①②口 |--③-|
口③③⑥ |--④-|
⑤口口④ |⑤-⑥-|
111
①①①① |①---|
②②②② |--②-|
口口口口 |----|
③③③③ |③---|
112
口口口口 |--①-|
②②②② |----|
①①①① |②---|
口口口口 |----|
113
②②①① |①-②-|
口口口口 |③---|
口③③口 |----|
口口口口 |----|

不確定度: 0

最終更新:2015年08月25日 00:20