アレスの楯
劇団レコード

BASIC

Level: 4
BPM: 174
Notes: 231

1
口口口口 |----|
口口口口 |----|
口口口口 |----|
口口口口 |----|
2
口口口口 |①---|
口①①口 |----|
口①①口 |----|
口口口口 |----|
3
口口口口 |----|
口口口口 |----|
口口口口 |----|
口口口口 |----|
4
口口口口 |----|
口口口口 |----|
口口口口 |----|
口口口口 |----|
5
口口口口 |----|
口口口口 |----|
口口口口 |----|
口口口口 |----|
6
口口口口 |----|
口口口口 |----|
口口口口 |----|
口口口口 |----|
7
口口口口 |①---|
口口口口 |②---|
口③④口 |③---|
①②口口 |④---|
8
口口口③ |①---|
口口①② |②---|
口口口口 |③---|
口口口口 |----|
9
口口口口 |①---|
口口口口 |②---|
口④③口 |③---|
口口②① |④---|
10
③口口口 |①---|
②①口口 |②---|
口口口口 |③---|
口口口口 |----|
11
口口②① |①---|
口④③口 |②---|
口口口口 |③---|
口口口口 |④---|
12
口口口口 |①---|
口口口口 |②---|
②①口口 |③---|
③口口口 |----|
13
①②口口 |①---|
口③④口 |②---|
口口口口 |③---|
口口口口 |④---|
14
口口口口 |①---|
口口口口 |②---|
口口①② |③---|
口口口③ |----|
15
口口口口 |①---|
口口口口 |----|
口①①口 |②---|
②口口② |----|
16
口口口口 |①---|
口②②口 |----|
口口口口 |②---|
口①①口 |----|
17
口口口口 |①---|
口②口口 |----|
①口口① |②---|
口口口口 |----|
18
口①①口 |①---|
口口口口 |----|
口口口口 |----|
口口口口 |----|
19
①口口口 |①---|
②口口口 |②---|
③口口口 |③---|
口口口口 |----|
20
口口口口 |①---|
口③口口 |②---|
口②口口 |③---|
口①口口 |----|
21
口口①口 |①---|
口口②口 |②---|
口口③口 |③---|
口口口口 |----|
22
口口口口 |①---|
口口口口 |----|
口口口口 |----|
口口口① |----|
23
口口口口 |①---|
口口口口 |②---|
③③口④ |③---|
①①口② |④---|
24
③③口口 |①---|
①①口② |②---|
口口口口 |③---|
口口口口 |----|
25
口口口口 |①---|
口口口口 |②---|
④口③③ |③---|
②口①① |④---|
26
口口③③ |①---|
②口①① |②---|
口口口口 |③---|
口口口口 |----|
27
口口口口 |①---|
口口口口 |②---|
③口③④ |③---|
①口①② |④---|
28
③口③口 |①---|
①口①② |②---|
口口口口 |③---|
口口口口 |----|
29
口口口口 |①---|
口口口口 |②---|
④③口③ |③---|
②①口① |④---|
30
口③口③ |①---|
②①口① |②---|
口口口口 |③---|
口口口口 |----|
31
口口④口 |①---|
口口③口 |②---|
口口②口 |③---|
口口①口 |④---|
32
口①口口 |①---|
口②口口 |②---|
口③口口 |③---|
口口口口 |----|
33
④口口口 |①---|
③口口口 |②---|
②口口口 |③---|
①口口口 |④---|
34
口口口① |①---|
口口口② |②---|
口口口③ |③---|
口口口口 |----|
35
口口口口 |①---|
口口口口 |----|
口①②口 |②---|
口口口口 |----|
36
口口口口 |①---|
口口口口 |----|
口口口口 |②---|
口①②口 |----|
37
口口口口 |①---|
口口口口 |----|
口口口口 |②---|
①口口② |----|
38
口③③口 |①---|
口②②口 |②---|
口①①口 |③---|
口口口口 |----|
39
①口口② |①---|
③口口④ |②---|
口口口口 |③---|
口口口口 |④---|
40
口口口口 |①---|
口口口口 |----|
①口口口 |----|
口口口口 |----|
41
口口口口 |①---|
口②①口 |②---|
口④③口 |③---|
口口口口 |④---|
42
口口口口 |①---|
口口口口 |----|
口口口口 |----|
口口①口 |----|
43
口口口口 |①---|
①口口② |②---|
③口口④ |③---|
口口口口 |④---|
44
口口口口 |①---|
口口口口 |----|
口③口口 |②---|
①口②口 |③---|
45
②口口口 |①---|
口口①口 |----|
口口口口 |②---|
口口口口 |----|
46
口口口① |①---|
口口口口 |----|
口口口口 |----|
口口口口 |----|
47
①口口② |①---|
③口口④ |②---|
口口口口 |③---|
口口口口 |④---|
48
口口口口 |①---|
口口口口 |----|
①口口口 |----|
口口口口 |----|
49
口口口口 |①---|
口②①口 |②---|
口④③口 |③---|
口口口口 |④---|
50
口口口口 |①---|
口口口口 |----|
口口口口 |----|
口口①口 |----|
51
口口口口 |①---|
①口口② |②---|
③口口④ |③---|
口口口口 |④---|
52
口口口口 |①---|
口口口口 |----|
口③口口 |②---|
①口②口 |③---|
53
②口口口 |①---|
口口①口 |----|
口口口口 |②---|
口口口口 |----|
54
口口口口 |①---|
口口口口 |----|
口口①口 |----|
口②口口 |②---|
55
④④口口 |①---|
口口③③ |②---|
②②口口 |③---|
口口①① |④---|
56
口口①① |①---|
口口口口 |----|
口口②② |②---|
口口口口 |----|
57
口口④④ |①---|
③③口口 |②---|
口口②② |③---|
①①口口 |④---|
58
①①口口 |①---|
口口口口 |----|
口②口口 |----|
口口口口 |②---|
59
口口口口 |①---|
口口口口 |②---|
口③口口 |----|
②②①① |③---|
60
口口口口 |①---|
口②③口 |②---|
口口①口 |③---|
口口口口 |----|
61
①口口① |①---|
②口口② |----|
口口口口 |②---|
口口口口 |----|
62
口口口口 |①---|
口口口口 |----|
①口口① |----|
口口口口 |----|
63
口口口口 |----|
口口口口 |----|
口口口口 |----|
口口口口 |----|
64
口口口口 |①---|
口口口口 |②---|
口③④口 |③---|
①②口口 |④---|
65
口口口③ |①---|
口口①② |②---|
口口口口 |③---|
口口口口 |----|
66
口口口口 |①---|
口口口口 |②---|
口④③口 |③---|
口口②① |④---|
67
③口口口 |①---|
②①口口 |②---|
口口口口 |③---|
口口口口 |----|
68
口口②① |①---|
口④③口 |②---|
口口口口 |③---|
口口口口 |④---|
69
口口口口 |①---|
口口口口 |②---|
②①口口 |③---|
③口口口 |----|
70
①②口口 |①---|
口③④口 |②---|
口口口口 |③---|
口口口口 |④---|
71
口口口口 |①---|
口口口口 |②---|
口口①② |③---|
口口口③ |----|

不確定度: 0

最終更新:2015年08月25日 00:20