アレスの楯
劇団レコード

ADVANCED

Level: 7
BPM: 174
Notes: 394

1
口口口口 |----|
口口口口 |----|
口口口口 |----|
口口口口 |----|
2
口口口口 |①---|
口①①口 |----|
口①①口 |----|
口口口口 |----|
3
口口口口 |----|
口口口口 |----|
口口口口 |----|
口口口口 |----|
4
口口口口 |----|
口口口口 |----|
口口口口 |----|
口口口口 |----|
5
口口口口 |----|
口口口口 |----|
口口口口 |----|
口口口口 |----|
6
口口口口 |----|
口口口口 |----|
口口口口 |----|
口口口口 |----|
7
口口⑤⑤ |①-②-|
④口口口 |③-④-|
口③⑥⑥ |⑤---|
②口口① |⑥---|
8
口口口口 |①---|
③③①① |②---|
口口口口 |③---|
口口②② |----|
9
⑤⑤口口 |①-②-|
口口口④ |③-④-|
⑥⑥③口 |⑤---|
口①口② |⑥---|
10
口口口口 |①---|
①①③③ |②---|
口口口口 |③---|
②②口口 |----|
11
口口⑤⑤ |①-②-|
④口口口 |③-④-|
口③⑥⑥ |⑤---|
②口口① |⑥---|
12
口口口口 |①---|
③③①① |②---|
口口口口 |③---|
口口②② |----|
13
⑤⑤口口 |①-②-|
口口口④ |③-④-|
⑥⑥③口 |⑤---|
口①口② |⑥---|
14
口口口口 |①---|
①①③③ |②---|
口口口口 |③---|
②②口口 |----|
15
口②口口 |①---|
口口④口 |②---|
口①①口 |③---|
③口口③ |--④-|
16
口口②口 |①---|
口④口口 |②---|
①口口① |③---|
口③③口 |--④-|
17
口③②口 |①---|
口口口口 |②---|
①口④① |③---|
口口口口 |--④-|
18
口口口口 |①---|
①口口① |----|
口口口口 |----|
口口口口 |----|
19
口⑤口口 |①-②-|
口口口④ |③-④-|
⑥口③口 |⑤---|
①口口② |⑥---|
20
口口口口 |①---|
口②③口 |②---|
④口口口 |③---|
口口①口 |④---|
21
口口⑤口 |①-②-|
④口口口 |③-④-|
口③口⑥ |⑤---|
②口①口 |⑥---|
22
口口④③ |①---|
口①①口 |----|
口口口口 |--②-|
②口口口 |③-④-|
23
口①口口 |①---|
口口口口 |--②-|
口③口口 |③---|
口口②④ |④---|
24
②口口① |①---|
口口⑤口 |②---|
口④口口 |③---|
③口口口 |④-⑤-|
25
②口口① |①---|
口⑤口口 |②---|
口口④口 |③---|
③口口口 |④-⑤-|
26
口口口③ |①---|
口口口口 |②---|
口口口口 |③---|
②口口① |----|
27
口①口口 |①---|
口口口口 |--②-|
口③口口 |③---|
口口②④ |④---|
28
②口口① |①---|
口口⑤口 |②---|
口④口口 |③---|
③口口口 |④-⑤-|
29
②口口① |①---|
口口④口 |②---|
口⑤口口 |③---|
③口口口 |④-⑤-|
30
③口口④ |①---|
⑤口口⑥ |②---|
口口口口 |③-④-|
口口②① |⑤-⑥-|
31
口口口口 |①-②-|
口口⑥口 |③-④-|
①②③④ |⑤---|
口⑤口口 |⑥---|
32
①口口口 |①---|
口口口口 |--②-|
③口口② |③---|
口口④口 |④---|
33
口口⑤口 |①-②-|
④③②① |③-④-|
口⑥口口 |⑤---|
口口口口 |⑥---|
34
口口⑤口 |①---|
②口口口 |--②-|
口④口口 |③-④-|
口口①③ |⑤---|
35
①①口口 |①---|
口口②② |----|
口③口口 |②---|
口口口口 |③---|
36
口口①① |①---|
②②⑤口 |②---|
口口③③ |③---|
口④口口 |④-⑤-|
37
口①口口 |①---|
口口口口 |--②-|
口口④② |③-④-|
③口口口 |----|
38
口口口口 |①---|
口口④口 |----|
口③口口 |--②-|
②①①口 |③-④-|
39
①①口② |①---|
④口口口 |--②-|
口口③⑤ |③---|
口口口口 |④-⑤-|
40
口口口口 |①---|
口④口口 |----|
口口③口 |--②-|
①口口② |③-④-|
41
④口①① |①---|
口⑤口口 |--②-|
②口⑥口 |③-④-|
口口口③ |⑤-⑥-|
42
口口口口 |①---|
口口口口 |----|
口③口口 |----|
①口②口 |②-③-|
43
口口①口 |①---|
②⑥口③ |--②-|
口口⑤口 |③-④-|
口④口口 |⑤-⑥-|
44
④口①④ |①---|
③口口③ |--②-|
口②口口 |③---|
口口口口 |④---|
45
④①①④ |①---|
口②③口 |--②-|
口②③口 |③---|
口口口口 |④---|
46
口口口口 |①---|
口口④口 |----|
口③口口 |--②-|
②①①口 |③-④-|
47
①①口② |①---|
④口口口 |--②-|
口口③⑤ |③---|
口口口口 |④-⑤-|
48
口口口口 |①---|
口④口口 |----|
口口③口 |--②-|
①口口② |③-④-|
49
④口①① |①---|
口⑤口口 |--②-|
②口⑥口 |③-④-|
口口口③ |⑤-⑥-|
50
口口口口 |①---|
口口口口 |----|
口③口口 |----|
①口②口 |②-③-|
51
口口①口 |①---|
②⑥口③ |--②-|
口口⑤口 |③-④-|
口④口口 |⑤-⑥-|
52
④口①④ |①---|
③口口③ |--②-|
口②口口 |③---|
口口口口 |④---|
53
口①①口 |①---|
④④口口 |--②-|
口口③③ |③-④-|
②②口口 |----|
54
口口口口 |①---|
④④口口 |----|
口①③③ |--②-|
②②①口 |③-④-|
55
②②①① |①---|
口口④④ |--②-|
③③口口 |③-④-|
⑥⑥⑤⑤ |⑤-⑥-|
56
③口口② |①---|
①①口口 |--②-|
③口口② |③---|
⑤⑤④④ |④-⑤-|
57
⑥⑥口口 |①---|
②②①① |--②-|
口口⑤⑤ |③-④-|
④④③③ |⑤-⑥-|
58
口口①① |①---|
②口口口 |----|
口口③口 |--②-|
④口口口 |③-④-|
59
②②③③ |①---|
口④④口 |②-③-|
口口口① |----|
口口口① |④---|
60
口④④口 |①-②-|
②口口③ |③-④-|
②口⑥③ |----|
⑤①①口 |⑤-⑥-|
61
①口口② |①---|
①③口④ |--②-|
口③口口 |③---|
口口口口 |--④-|
62
口口口口 |①---|
口口口口 |----|
①口口口 |----|
①口口口 |----|
63
口口口口 |----|
口口口口 |----|
口口口口 |----|
口口口口 |----|
64
口口⑤⑤ |①-②-|
④口口口 |③-④-|
口③⑥⑥ |⑤---|
②口口① |⑥---|
65
口口口口 |①---|
③③①① |②---|
口口口口 |③---|
口口②② |----|
66
⑤⑤口口 |①-②-|
口口口④ |③-④-|
⑥⑥③口 |⑤---|
口①口② |⑥---|
67
口口口口 |①---|
①①③③ |②---|
口口口口 |③---|
②②口口 |----|
68
口口⑤⑤ |①-②-|
④口口口 |③-④-|
口③⑥⑥ |⑤---|
②口口① |⑥---|
69
口口口口 |①---|
③③①① |②---|
口口口口 |③---|
口口②② |----|
70
⑤⑤口口 |①-②-|
口口口④ |③-④-|
⑥⑥③口 |⑤---|
口①口② |⑥---|
71
口口口口 |①---|
①①③③ |②---|
口口口口 |③---|
②②口口 |----|

不確定度: 0

最終更新:2015年08月25日 00:19