ビビットストリーム
DJ TOTTO

BASIC

Level: 4
BPM: 184
Notes: 301

1
口口口口 |----|
口口口口 |----|
口口口口 |----|
口口口口 |----|
2
口口口口 |----|
口口口口 |----|
口口口口 |----|
口口口口 |----|
3
①①口口 |①---|
①口口口 |----|
口口口口 |----|
口口口口 |----|
4
口口口口 |----|
口口口口 |----|
口口口口 |----|
口口口口 |----|
5
口口①① |①---|
口口口① |----|
口口口口 |----|
口口口口 |----|
6
口口口口 |----|
口口口口 |----|
口口口口 |----|
口口口口 |----|
7
口口口口 |①---|
口口口口 |----|
①口口口 |----|
①①口口 |----|
8
口口口口 |----|
口口口口 |----|
口口口口 |----|
口口口口 |----|
9
口口口口 |①---|
口口口口 |----|
口口口① |----|
口口①① |----|
10
口口口口 |----|
口口口口 |----|
口口口口 |----|
口口口口 |----|
11
①①①口 |①---|
②口口口 |②---|
③口口口 |③---|
④口口口 |④---|
12
口①口口 |①---|
口②口口 |②---|
口③口口 |③---|
口④口口 |④---|
13
口①①① |①---|
口口口② |②---|
口口口③ |③---|
口口口④ |④---|
14
口口①口 |①---|
口口②口 |②---|
口口③口 |③---|
口口④口 |④---|
15
①①①口 |①---|
口②口口 |②---|
口③口口 |③---|
口④口口 |④---|
16
口口①口 |①---|
口口②口 |②---|
口口③口 |③---|
口口④口 |④---|
17
口①①① |①---|
口口②口 |②---|
口口③口 |③---|
口口④口 |④---|
18
②②口口 |①---|
口①口口 |----|
③③口口 |②---|
口口口口 |③---|
19
口口口② |①---|
①①①① |②---|
口口③口 |③---|
口口口口 |----|
20
口④口口 |①---|
③口口口 |②---|
口②口口 |③---|
①口口口 |④---|
21
②口口口 |①---|
口口①① |②---|
口③口口 |③---|
口口口口 |----|
22
口口④口 |①---|
口口口③ |②---|
口口②口 |③---|
口口口① |④---|
23
口口口② |①---|
①①口口 |②---|
口口③口 |③---|
口口口口 |----|
24
口④口口 |①---|
③口口口 |②---|
口②口口 |③---|
①口口口 |④---|
25
口口口口 |①---|
口口口口 |----|
②口口② |②---|
口①①口 |----|
26
①②②① |①---|
口口口口 |----|
口口口口 |②---|
口③③口 |③---|
27
口口口② |①---|
①①①① |②---|
口口③口 |③---|
口口口口 |----|
28
口④口口 |①---|
③口口口 |②---|
口②口口 |③---|
①口口口 |④---|
29
②口口口 |①---|
口口①① |②---|
口③口口 |③---|
口口口口 |----|
30
口口④口 |①---|
口口口③ |②---|
口口②口 |③---|
口口口① |④---|
31
口口口② |①---|
①①口口 |②---|
口口③口 |③---|
口口口口 |----|
32
口④口口 |①---|
③口口口 |②---|
口②口口 |③---|
①口口口 |④---|
33
①口口① |①---|
口口口口 |----|
口口口口 |----|
口口口口 |----|
34
口②②口 |①---|
口③③口 |----|
口口口口 |②---|
①口口① |③---|
35
口口口口 |①---|
口口口口 |----|
口①①口 |----|
口口口口 |----|
36
口口口口 |----|
②口口② |----|
①口口① |①---|
口口口口 |②---|
37
口①口口 |①---|
口口②口 |--②-|
口③口口 |----|
口口口口 |③---|
38
口口口口 |--①-|
②口口② |----|
③口口③ |②---|
口口①口 |③---|
39
口口口口 |①---|
口③口口 |--②-|
口口②口 |----|
口①口口 |③---|
40
口口①口 |--①-|
②口口② |----|
③口口③ |②---|
口口口口 |③---|
41
口口口口 |①---|
口口③口 |--②-|
口②口口 |----|
口口①口 |③---|
42
口①口口 |--①-|
②口口② |----|
③口口③ |②---|
口口口口 |③---|
43
口③口① |①---|
口口②口 |--②-|
口口口口 |----|
口口口口 |③---|
44
②口口② |--①-|
①口口口 |----|
③口口③ |②---|
口口口口 |③---|
45
口口口口 |①---|
口口口口 |--②-|
口②口口 |----|
①口③口 |③---|
46
口口口口 |--①-|
②口口② |----|
口口口① |②---|
③口口③ |③---|
47
口③口① |①---|
口口②口 |--②-|
口口口口 |----|
口口口口 |③---|
48
②口口② |--①-|
①口口口 |----|
③口口③ |②---|
口口口口 |③---|
49
口口口口 |①---|
口口口口 |--②-|
口②口口 |----|
①口③口 |③---|
50
口口口口 |①---|
①②③④ |②---|
口口口口 |③---|
口口口口 |④---|
51
①口口口 |①---|
口口口口 |----|
口②口口 |②---|
口口口口 |----|
52
口口口口 |①---|
口口口口 |②---|
口口口口 |③---|
①②③④ |④---|
53
口口口口 |①---|
口口口① |----|
口②口口 |②---|
口口口口 |----|
54
④③②① |①---|
口口口口 |②---|
口口口口 |③---|
口口口口 |④---|
55
口口口口 |①---|
口口口① |----|
口②口口 |②---|
口口口口 |----|
56
口口口口 |①---|
口口口口 |②---|
口口口口 |③---|
①②③④ |④---|
57
口口口口 |①---|
①口口口 |----|
口口②口 |②---|
口口口口 |----|
58
①②③④ |①---|
口口口口 |②---|
口口口口 |③---|
口口口口 |④---|
59
口口口口 |①---|
口①①② |----|
口①①口 |②---|
口口口口 |----|
60
口口口口 |①---|
口口口口 |②---|
口口口口 |③---|
①②③④ |④---|
61
口口口口 |①---|
口①口口 |----|
口口口② |②---|
口口口口 |----|
62
④③②① |①---|
口口口口 |②---|
口口口口 |③---|
口口口口 |④---|
63
口口口口 |①---|
口口①口 |----|
口②口口 |②---|
口口口口 |----|
64
口口口口 |①---|
口口口口 |②---|
口口口口 |③---|
④③②① |④---|
65
口口口口 |①---|
口口口② |----|
口①口口 |②---|
口口口口 |----|
66
口①①口 |①---|
口②②口 |②---|
口③③口 |③---|
口④④口 |④---|
67
①①口口 |①---|
口口口口 |----|
口口口口 |----|
口口口口 |----|
68
口口口口 |----|
口口口口 |----|
口口口口 |----|
口口口口 |----|
69
口口①① |①---|
口口口口 |----|
口口口口 |----|
口口口口 |----|
70
口口口口 |----|
口口口口 |----|
口口口口 |----|
口口口口 |----|
71
口口口口 |①---|
口口口口 |----|
口口口口 |----|
①①口口 |----|
72
口口口口 |①---|
口口口口 |----|
口口口口 |----|
口口①① |----|
73
口口口口 |①---|
①①②② |----|
口口口口 |②---|
口口口口 |----|
74
口②②口 |①---|
口口口口 |----|
③口口③ |②---|
口①①口 |③---|
75
口口口② |①---|
①①①① |②---|
口口③口 |③---|
口口口口 |----|
76
口④口口 |①---|
③口口口 |②---|
口②口口 |③---|
①口口口 |④---|
77
②口口口 |①---|
口口①① |②---|
口③口口 |③---|
口口口口 |----|
78
口口④口 |①---|
口口口③ |②---|
口口②口 |③---|
口口口① |④---|
79
口口口② |①---|
①①口口 |②---|
口口③口 |③---|
口口口口 |----|
80
口④口口 |①---|
③口口口 |②---|
口②口口 |③---|
①口口口 |④---|
81
①口口① |①---|
口口口口 |----|
口口口口 |----|
口口口口 |----|
82
口②②口 |①---|
口③③口 |----|
口口口口 |②---|
①口口① |③---|
83
口口口口 |①---|
口口口口 |----|
口①①口 |----|
口口口口 |----|
84
口口口口 |----|
口口口口 |----|
口口口口 |----|
口口口口 |----|
85
①口口口 |①---|
口②口口 |②---|
口口③口 |③---|
口口口口 |----|
86
口口口① |①---|
口②②口 |--②-|
口②②口 |----|
口口口口 |----|

不確定度: 0

最終更新:2016年04月18日 01:30