パ→ピ→プ→Yeah!
ヒゲドライバー join. shully & Nimo

BASIC

Level: 6
BPM: 160
Notes: 383

1
口口口口 |----|
口口口口 |----|
口口口口 |----|
口口口口 |----|
2
口口口口 |①---|
①②③口 |②---|
口口口口 |③---|
口④④口 |④---|
3
口①①口 |①---|
口口口口 |----|
口②口口 |②---|
③口口③ |--③-|
4
口①①口 |①---|
②口口② |----|
口口口口 |②---|
③口口③ |--③-|
5
口①①口 |①---|
口口口口 |----|
口口②口 |②---|
③口口③ |--③-|
6
口①口口 |①---|
③口口④ |②---|
口②②口 |③-④-|
⑤口口⑥ |⑤-⑥-|
7
①①①① |①---|
口口②口 |----|
口口口口 |②---|
③口口③ |--③-|
8
①口口① |①---|
口②口口 |----|
口口口口 |②---|
③口口③ |--③-|
9
①口口① |①---|
口口②口 |----|
口口口口 |②---|
③口口③ |--③-|
10
①①①① |①---|
口口口口 |----|
口口口口 |----|
口口口口 |----|
11
口①①口 |①---|
口口口② |②---|
口口③口 |③---|
口④口口 |④---|
12
口口口口 |①---|
口②口③ |②---|
①口口④ |③--④|
口口口⑤ |--⑤-|
13
口口③口 |----|
口②口口 |①---|
①口口口 |②---|
口口口口 |③---|
14
⑦口⑧口 |①-②-|
⑤口⑥口 |③-④-|
③口④口 |⑤-⑥-|
①口②口 |⑦-⑧-|
15
口口口口 |----|
①口口口 |①---|
口②口口 |②---|
口口③口 |③---|
16
口口口口 |①---|
③口②口 |②---|
④口口① |③--④|
⑤口口口 |--⑤-|
17
口③口口 |----|
口口②口 |①---|
口口口① |②---|
口口口口 |③---|
18
口口口口 |①---|
②口口① |②---|
口口口口 |③---|
④口口③ |④---|
19
①③口① |①---|
口②口口 |----|
口口口口 |②---|
口口口口 |--③-|
20
口口①口 |①---|
②口口口 |②---|
口③口口 |③---|
口口④口 |④---|
21
①①①① |①---|
口②口口 |----|
口口口口 |②---|
③口口③ |--③-|
22
①口口① |①---|
口口②口 |----|
口口口口 |②---|
③口口③ |--③-|
23
①口口① |①---|
口②口口 |----|
口口口口 |②---|
③口口③ |--③-|
24
①①①① |①---|
口口口口 |----|
口口口口 |----|
口口口口 |----|
25
口①①口 |①---|
②口口口 |②---|
口③口口 |③---|
口口④口 |④---|
26
口口口口 |①---|
③口②口 |②---|
④口口① |③--④|
⑤口口口 |--⑤-|
27
口③口口 |----|
口口②口 |①---|
口口口① |②---|
口口口口 |③---|
28
口⑧口⑦ |①-②-|
口⑥口⑤ |③-④-|
口④口③ |⑤-⑥-|
口②口① |⑦-⑧-|
29
口口口口 |----|
口口口① |①---|
口口②口 |②---|
口③口口 |③---|
30
口口口口 |①---|
口②口③ |②---|
①口口④ |③--④|
口口口⑤ |--⑤-|
31
口口③口 |----|
口②口口 |①---|
①口口口 |②---|
口口口口 |③---|
32
口口口口 |①---|
①口口② |②---|
口口口口 |③---|
③口口④ |④---|
33
①口口① |①---|
口口口口 |----|
口②口口 |----|
口口口口 |②---|
34
②②②② |①---|
口口口口 |--②-|
口口①口 |----|
口口口口 |----|
35
口口口口 |①---|
口口口口 |②---|
口①②口 |③---|
口④③口 |④---|
36
口①①口 |①---|
口口口口 |----|
口口口口 |----|
口口口口 |----|
37
口口口口 |①---|
口口口口 |----|
口①①口 |②---|
②口口③ |③---|
38
口②②口 |①---|
口口口口 |--②-|
口①①口 |----|
口口口口 |----|
39
口口口口 |①---|
①口口② |----|
①口口② |②---|
口口口口 |----|
40
口口口口 |①---|
口②②口 |----|
口②②口 |②---|
③①①③ |③---|
41
①①①① |①---|
口口口口 |----|
②口口② |----|
口口口口 |--②-|
42
②口②口 |①---|
①②口① |----|
口②口口 |②---|
口口口口 |----|
43
④④口口 |①--②|
⑤⑤①① |--③-|
⑥⑥②② |④--⑤|
口口③③ |--⑥-|
44
④④口口 |①--②|
口口①① |--③-|
口口②② |④---|
口口③③ |----|
45
口⑤①口 |①--②|
②口口⑥ |-③-④|
③口口⑦ |⑤--⑥|
④口口⑧ |-⑦-⑧|
46
口口①口 |①--②|
②口口口 |-③-④|
③口口口
④口口口

⑥⑥⑥⑥
口口口口
口⑤⑤口 |⑤---|
口口口口 |⑥---|
47
口口口口 |----|
口②①口 |①---|
口口③口 |②---|
口口口口 |③---|
48
④口口④ |①---|
口口口口 |②---|
口①口口 |③---|
口③②口 |④---|
49
口①⑤口 |①--②|
⑥口口② |-③-④|
⑦口口③ |⑤--⑥|
⑧口口④ |-⑦-⑧|
50
口口口口 |----|
口①口② |①---|
口口口③ |②--③|
口口口④ |--④-|
51
③②①口 |①--②|
③②①口 |--③-|
口④⑤⑥ |④--⑤|
口④⑤⑥ |--⑥-|
52
③②①④ |①--②|
③②①④ |--③-|
口口口口 |④---|
口口口口 |----|
53
④③②口 |①--②|
口口口⑤ |-③-④|
口口口① |⑤--⑥|
⑧⑦⑥口 |-⑦-⑧|
54
④③②口 |①--②|
⑥口口⑥ |-③-④|
口⑤⑤① |⑤---|
⑥口口⑥ |⑥---|
55
口口口口 |----|
口①②口 |①---|
口③口口 |②---|
口口口口 |③---|
56
④口口④ |①---|
口口口口 |②---|
口口①口 |③---|
口②③口 |④---|
57
口①⑤口 |①--②|
⑥口口② |-③-④|
⑦口口③ |⑤--⑥|
⑧口口④ |-⑦-⑧|
58
口口口口 |----|
②口①口 |①---|
③口口口 |②--③|
④口口口 |--④-|
59
①①①① |①---|
口口口口 |----|
口②口口 |②---|
③口口口 |--③-|
60
口口①① |①---|
口口口① |----|
口口②口 |②---|
口口口③ |--③-|
61
①①口口 |①---|
①口口口 |----|
口②口口 |②---|
③口口口 |--③-|
62
口①口① |①---|
口口①口 |----|
口口①口 |----|
②口口② |②---|
63
口①①口 |①---|
口口口口 |----|
口②口口 |②---|
③口口③ |--③-|
64
口①①口 |①---|
②口口② |----|
口口口口 |②---|
③口口③ |--③-|
65
口①①口 |①---|
口口口口 |----|
口口②口 |②---|
③口口③ |--③-|
66
口①①口 |①---|
②口口③ |----|
口口口口 |②-③-|
④口口⑤ |④-⑤-|
67
①①①① |①---|
口口②口 |----|
口口口口 |②---|
③口口③ |--③-|
68
①口口① |①---|
口②口口 |----|
口口口口 |②---|
③口口③ |--③-|
69
①口口① |①---|
口口②口 |----|
口口口口 |②---|
③口口③ |--③-|
70
①①①① |①---|
③口口② |----|
口口口口 |②-③-|
⑤口口④ |④-⑤-|
71
口①①口 |①---|
口口口口 |----|
口口口口 |----|
口口口口 |----|

不確定度: 0

最終更新:2016年09月20日 00:18