パ→ピ→プ→Yeah!
ヒゲドライバー join. shully & Nimo

ADVANCED

Level: 8
BPM: 160
Notes: 614

1
口口口口 |----|
口口口口 |----|
口口口口 |----|
口口口口 |----|
2
口②①口 |①---|
口口口③ |②---|
口口④口 |③-④-|
口⑤⑤口 |⑤---|
3
口①①口 |①---|
口口口③ |②---|
口②口④ |③--④|
口口⑤⑤ |--⑤-|
4
口①①口 |①---|
③③口口 |②---|
④④②口 |③--④|
⑤⑤口口 |--⑤-|
5
口①①口 |①---|
口③口口 |②---|
口④②口 |③--④|
口⑤口口 |--⑤-|
6
①②②口 |①---|
①口②口 |②---|
①口②②
口口口口

口口口口
⑤口口口
⑤④口口 |③-④-|
⑤④③⑥ |⑤-⑥-|
7
①①①① |①---|
口口口③ |②---|
口口②④ |③--④|
口口口⑤ |--⑤-|
8
①①①① |①---|
③口口口 |②---|
④②②口 |③--④|
⑤口口口 |--⑤-|
9
①①①① |①---|
口口口③ |②---|
口②②④ |③--④|
口口口⑤ |--⑤-|
10
①口①口 |①---|
口①口口 |----|
口①口口 |----|
口口口口 |----|
11
⑦⑥⑤④ |--①-|
口口③口 |②-③-|
口②口口 |④-⑤-|
①口口口 |⑥-⑦-|
12
口口口口 |--①-|
③口口口 |②-③-|
口②口口
口口①口

口口口口
口口④④
口口⑤⑤ |④--⑤|
口口⑥⑥ |--⑥-|
13
①①①⑦ |①---|
④口⑥口 |②-③-|
口③口⑤ |④-⑤-|
②口口口 |⑥-⑦-|
14
⑦⑦⑧⑧ |①-②-|
⑤⑤⑥⑥ |③-④-|
③③④④ |⑤-⑥-|
①①②② |⑦-⑧-|
15
④⑤⑥⑦ |--①-|
口③口口 |②-③-|
口口②口 |④-⑤-|
口口口① |⑥-⑦-|
16
口口口口 |①-②-|
口口口④ |③-④-|
口口③口
口②口①

口口口口
⑤⑤口口
⑥⑥口口 |⑤--⑥|
⑦⑦口口 |--⑦-|
17
⑦①①① |①---|
口⑥口④ |②-③-|
⑤口③口 |④-⑤-|
口口口② |⑥-⑦-|
18
口口口① |①-②-|
⑤口②口 |③-④-|
⑥口口③ |⑤--⑥|
⑦口④口 |--⑦-|
19
①口口① |①---|
口②口口 |②---|
口口③口 |③---|
⑤④口⑤ |④-⑤-|
20
①口口① |①---|
③口口④ |②---|
口②②口 |③-④-|
⑤口口⑥ |⑤-⑥-|
21
①①①① |①---|
③口口口 |②---|
④②②口 |③--④|
⑤口口口 |--⑤-|
22
①①①① |①---|
口口口③ |②---|
口②②④ |③--④|
口口口⑤ |--⑤-|
23
①①①① |①---|
③口口口 |②---|
④②②口 |③--④|
⑤口口口 |--⑤-|
24
口①口① |①---|
口口①口 |----|
口口①口 |----|
口口口口 |----|
25
④⑤⑥⑦ |--①-|
口③口口 |②-③-|
口口②口 |④-⑤-|
口口口① |⑥-⑦-|
26
口口口口 |--①-|
口口口③ |②-③-|
口口②口
口①口口

口口口口
④④口口
⑤⑤口口 |④--⑤|
⑥⑥口口 |--⑥-|
27
⑦①①① |①---|
口⑥口④ |②-③-|
⑤口③口 |④-⑤-|
口口口② |⑥-⑦-|
28
⑧⑧⑦⑦ |①-②-|
⑥⑥⑤⑤ |③-④-|
④④③③ |⑤-⑥-|
②②①① |⑦-⑧-|
29
⑦⑥⑤④ |--①-|
口口③口 |②-③-|
口②口口 |④-⑤-|
①口口口 |⑥-⑦-|
30
口口口口 |①-②-|
④口口口 |③-④-|
口③口口
①口②口

口口口口
口口⑤⑤
口口⑥⑥ |⑤--⑥|
口口⑦⑦ |--⑦-|
31
①①①⑦ |①---|
④口⑥口 |②-③-|
口③口⑤ |④-⑤-|
②口口口 |⑥-⑦-|
32
①口口口 |①-②-|
口②口⑤ |③-④-|
③口口⑥ |⑤--⑥|
口④口⑦ |--⑦-|
33
①口口① |①---|
口②口口 |----|
口口③口 |--②-|
口④口口 |③-④-|
34
③③③③ |①--②|
②口口② |--③-|
①口口①
口口口口

口口口口
口口口口
④口口口 |----|
口口口口 |--④-|
35
口②②口 |①---|
③口口④ |②---|
口口口① |③---|
④口口③ |④---|
36
①口①口 |①---|
口①口口 |----|
①口①口
口口口口

口②②口
口口口口
口口口口 |----|
口口口口 |--②-|
37
⑤④③② |①---|
口口口口 |----|
口口口口 |②-③-|
口①①口 |④-⑤-|
38
口口④④ |①--②|
③口口③ |--③-|
②口口② |----|
①口口① |--④-|
39
口口口口 |①--②|
⑥口口③ |--③-|
⑤口口② |④--⑤|
④口口① |--⑥-|
40
口①②③ |①--②|
口④口④ |--③-|
口④④④ |④---|
口⑤⑤④ |⑤---|
41
①①①口 |①---|
口口口② |----|
口口口② |----|
口口口② |--②-|
42
②口②口 |①---|
①②③口 |----|
①②③③ |②---|
①口③③ |③---|
43
口①④口 |①--②|
①③⑥④ |--③-|
②③⑥⑤ |④--⑤|
口②⑤口 |--⑥-|
44
①③④① |①--②|
口⑤⑤口 |--③-|
③口口④ |④---|
②⑤⑤② |⑤---|
45
⑩口口② |①②-③|
⑨口⑥③ |-④-⑤|
⑧①口④ |⑥⑦-⑧|
⑦口口⑤ |-⑨-⑩|
46
口口口② |①②-③|
口口口③ |-④-⑤|
口①口④
口口口⑤

口⑥⑥口
⑦口⑦口
口⑦口口 |⑥---|
口⑦口口 |⑦---|
47
①口口口 |--①-|
口⑥⑥② |②-③-|
③⑤⑤口 |④--⑤|
口④④口 |--⑥-|
48
①⑤⑤① |①--②|
②口口② |--③-|
③口口③ |④---|
口④④口 |⑤---|
49
②口口⑩ |①②-③|
③⑥口⑨ |-④-⑤|
④口①⑧ |⑥⑦-⑧|
⑤口口⑦ |-⑨-⑩|
50
①口口口 |--①-|
口②口口 |②-③-|
③口口口
口口口口

⑥口口⑥
口口口口
口⑤④口 |④--⑤|
⑤口口④ |--⑥-|
51
口④①口 |①--②|
④③③① |--③-|
②⑥⑥⑤ |④--⑤|
口②⑤口 |--⑥-|
52
①③④② |①--②|
口⑤⑤口 |--③-|
③口口④ |④---|
②⑤⑤① |⑤---|
53
②③④⑤ |①②-③|
口⑥口口 |-④-⑤|
口口①口 |⑥⑦-⑧|
⑩⑨⑧⑦ |-⑨-⑩|
54
②③④⑤ |①②-③|
口口口口 |-④-⑤|
口口①口
口口口口

口口口口
⑥⑦口⑦
⑥口⑦口 |⑥---|
口口⑦口 |⑦---|
55
口③口口 |--①-|
④口②④ |②-③-|
⑤①口⑤ |④--⑤|
⑥口口⑥ |--⑥-|
56
口③③口 |①--②|
⑤②②⑥ |--③-|
⑤①①⑥ |④---|
口④④口 |⑤-⑥-|
57
⑤④③② |①②-③|
口口⑥口 |-④-⑤|
口①口口 |⑥⑦-⑧|
⑦⑧⑨⑩ |-⑨-⑩|
58
口口口① |--①-|
口口②口 |②-③-|
口④⑤③ |④--⑤|
④⑥⑥⑤ |--⑥-|
59
①①①① |①---|
口口②口 |----|
口③口口 |②--③|
④口口口 |--④-|
60
口口①① |①---|
口③口① |②---|
②口④② |③--④|
口口口⑤ |--⑤-|
61
①①口口 |①---|
①口③口 |②---|
②④口② |③--④|
⑤口口口 |--⑤-|
62
⑤②②⑤ |①---|
口①口① |②---|
③口①口 |③-④-|
口④①口 |⑤---|
63
口①①口 |①---|
③口口口 |②---|
④口②口 |③--④|
⑤⑤口口 |--⑤-|
64
口①①口 |①---|
口口③③ |②---|
口②④④ |③--④|
口口⑤⑤ |--⑤-|
65
口①①口 |①---|
口口③口 |②---|
口②④口 |③--④|
口⑤⑤口 |--⑤-|
66
口①①口 |①---|
④口口③ |②---|
口②口口 |③-④-|
⑥口口⑤ |⑤-⑥-|
67
①①①① |①---|
口口口③ |②---|
口②②④ |③--④|
口口口⑤ |--⑤-|
68
①①①① |①---|
③口口口 |②---|
④②②口 |③--④|
⑤口口口 |--⑤-|
69
①①①① |①---|
口口口③ |②---|
口②②④ |③--④|
口口口⑤ |--⑤-|
70
①口①② |①---|
③①口口 |----|
口①口④ |②-③-|
⑤口口口 |④-⑤-|
71
口①①口 |①---|
口①①口 |----|
口口口口 |----|
口口口口 |----|

不確定度: 0

最終更新:2016年04月18日 01:31