プレインエイジア -PHQ remix-
PHQUASE

BASIC

Level: 5
BPM: 182
Notes: 422

1
口口口口 |----|
口口口口 |----|
口口口口 |----|
口口口口 |----|
2
口口口口 |①---|
①口②口 |----|
口口③口 |②---|
口口口口 |③---|
3
①口口① |①---|
口②口口 |----|
口口口口 |②---|
口口口口 |----|
4
①④口① |①---|
②口口② |②---|
③口口③ |③---|
口口口口 |--④-|
5
口口口口 |----|
口口口口 |----|
口口口口 |----|
口口口口 |----|
6
①口口口 |①---|
口口口口 |----|
②④③口 |②---|
口口口口 |③-④-|
7
口口口口 |----|
口①②口 |----|
口口口口 |--①-|
口口口口 |②---|
8
①口口① |①---|
②口口② |②---|
③口口③ |③---|
口口口口 |----|
9
口口口口 |①---|
口口口口 |----|
口③口口 |②---|
口②①口 |③---|
10
①口口① |①---|
口③③口 |②---|
②口口② |③---|
口口口口 |----|
11
③③③③ |①---|
口口口口 |----|
口口口口 |②---|
口①②口 |③---|
12
口口口口 |①---|
口①口① |②---|
口②口② |----|
口口口口 |----|
13
口①口口 |①---|
口口②口 |----|
口口③口 |②---|
口口口口 |③---|
14
③①①③ |--①-|
口口口口 |----|
②口口② |②---|
口口口口 |③---|
15
口口口口 |①---|
口①口② |----|
口口口口 |②---|
口口口口 |----|
16
口口口口 |①---|
①口①口 |②---|
②口②口 |----|
口口口口 |----|
17
口口①口 |①---|
口②口口 |----|
口③口口 |②---|
口口口口 |③---|
18
口口口口 |----①-|
口⑤①口 |②---③-|
②⑦③⑥ |④---⑤-|
④口口口 |⑥---⑦-|
19
口口口口 |①---|
口口口口 |----|
②③口口 |②---|
口口口① |③---|
20
口口口口 |①---|
口口②① |②---|
口口口口 |----|
口口②① |----|
21
口口口口 |①---|
口口口① |----|
口③②口 |②---|
口口口口 |③---|
22
③①①③ |--①-|
口口口口 |----|
②口口② |②---|
口口口口 |③---|
23
口口口口 |①---|
口口①口 |----|
口口口口 |②---|
口口②口 |----|
24
口③口口 |①---|
①②口口 |②---|
口口口口 |③---|
①②口口 |----|
25
口口口口 |①---|
口③口口 |②---|
口②①口 |③---|
口口口口 |----|
26
①口②口 |①---|
口口口口 |----|
口口口口 |②---|
口口口口 |----|
27
口口口口 |①---|
口④③口 |②---|
口①②口 |③---|
口口口口 |④---|
28
①④④① |①---|
②口口② |②---|
③口口③ |③---|
口口口口 |--④-|
29
口口口口 |--①-|
口①①口 |----|
口口口口 |②---|
口口②口 |----|
30
②口口② |①---|
口口口口 |②---|
口①口口 |③-④-|
③④⑤口 |⑤---|
31
⑤口口⑤ |①-②-|
口口④口 |③---|
口③②① |④---|
口口口口 |⑤---|
32
口④④口 |①---|
③口口③ |②---|
②口口② |③---|
①口口① |--④-|
33
口口口口 |--①-|
口①①口 |----|
口口口口 |②---|
口②口口 |----|
34
②口口② |①---|
口口口口 |②---|
口口①口 |③-④-|
口⑤④③ |⑤---|
35
⑤口口⑤ |①-②-|
口④口口 |③---|
①②③口 |④---|
口口口口 |⑤---|
36
口④④口 |①---|
口③②① |②---|
口③②① |③---|
口口口口 |--④-|
37
①口口① |--①-|
②口口口 |----|
口口口口 |②---|
口口口口 |----|
38
②口口② |①---|
口口③口 |②---|
口①④口 |③-④-|
口口⑤口 |⑤---|
39
⑤③口⑤ |①-②-|
口②④口 |③---|
口①口口 |④---|
口口口口 |⑤---|
40
口④④口 |①---|
①②③口 |②---|
①②③口 |③---|
口口口口 |--④-|
41
①口口① |--①-|
口口口② |----|
口口口口 |②---|
口口口口 |----|
42
②口口② |①---|
口③口口 |②---|
口④①口 |③-④-|
口⑤口口 |⑤---|
43
⑤口③⑤ |①-②-|
口口②口 |③---|
④口①④ |④-⑤-|
口口口口 |----|
44
口口口口 |①---|
口②口口 |----|
口①①口 |----|
口口口口 |--②-|
45
口口口口 |----|
口口口口 |----|
口口口口 |----|
口口口口 |----|
46
口口口口 |①---|
口口①口 |----|
口口②口 |----|
口口口口 |--②-|
47
①口口① |----|
口口口口 |①---|
口口口口 |----|
口口口口 |----|
48
口口口口 |①---|
口①口口 |----|
口③口口 |②---|
①②口口 |--③-|
49
口口口口 |①---|
口口口口 |----|
口口口口 |②---|
口口①② |----|
50
④③②① |①---|
口口①口 |②---|
口口口口 |③---|
口口口口 |④---|
51
④④④④ |①---|
口口①口 |②---|
口②口口 |③---|
口口③口 |④---|
52
口口口口 |①---|
口口②① |②---|
口口③④ |③---|
口口口口 |④---|
53
口口口口 |①---|
口口口口 |②---|
④③口口 |③---|
①②口口 |④---|
54
口口③④ |①---|
口口②① |②---|
口口口口 |③---|
口口口口 |④---|
55
①口口口 |①---|
口②口口 |②---|
口口③口 |③---|
口④④口 |④---|
56
①①①① |①---|
口口②口 |②---|
口③口口 |③---|
④口口口 |④---|
57
口口口口 |①---|
④③②① |②---|
口口口口 |③---|
口口口口 |④---|
58
口口口口 |①---|
口口口口 |②---|
口口口口 |③---|
①②③④ |④---|
59
⑤口口⑤ |①-②-|
①④④② |--③-|
①口口② |--④-|
口③③口 |--⑤-|
60
口口口口 |①---|
②口口① |②---|
④口口③ |③---|
口口口口 |④---|
61
口⑥口口 |①---|
口口⑤口 |②---|
口④口口 |③-④-|
②口③① |⑤-⑥-|
62
口口口口 |①---|
口口口口 |②---|
④口口③ |③---|
②口口① |④---|
63
口口③口 |①---|
②④口① |②---|
口口⑤口 |③-④-|
口⑥口口 |⑤-⑥-|
64
①②②① |①---|
③口口③ |----|
口口口口 |--②-|
口口口口 |--③-|
65
口口口口 |----|
口口口口 |----|
①口口① |①---|
口②②口 |②---|
66
口口口口 |----|
口②②口 |①---|
口②②口 |--②-|
①口口① |----|
67
①口口① |①---|
口口口③ |----|
②口口口 |②---|
口口口口 |③---|
68
口①①口 |①---|
④②②④ |②---|
口③③口 |③---|
口口口口 |--④-|
69
口口口口 |--①-|
口④④口 |--②-|
①口口① |③---|
口②③口 |--④-|
70
口口口口 |--①-|
口④④口 |--②-|
口①①口 |③---|
③口口② |--④-|
71
④④④④ |--①-|
口口口口 |--②-|
口①①口 |③---|
②口口③ |④---|
72
④口口④ |①---|
口③③口 |②---|
口②②口 |③---|
口①①口 |--④-|
73
口口口口 |--①-|
①口口① |--②-|
口④口口 |③---|
口②③口 |④---|
74
口②②② |①---|
口①①口 |②---|
⑤④③口 |③-④-|
口口口口 |⑤---|
75
⑤口口⑤ |①-②-|
口①②③ |③---|
口口口口 |④---|
口④④口 |⑤---|
76
④口口④ |①---|
口①①口 |②---|
口②②口 |③---|
口③③口 |--④-|
77
口口口口 |--①-|
①口口① |--②-|
口口④口 |③---|
口③②口 |④---|
78
②②②口 |①---|
口①①口 |②---|
口③④⑤ |③-④-|
口口口口 |⑤---|
79
⑤口口⑤ |①-②-|
③②①口 |③---|
口口口口 |④---|
口④④口 |⑤---|
80
④口口④ |①---|
口①①口 |②---|
口②②口 |③---|
口③③口 |--④-|
81
口口口口 |--①-|
①口口① |--②-|
口④口口 |③---|
口②③口 |④---|
82
口②②② |①---|
口①①口 |②---|
口口口口 |③-④-|
⑤④③口 |⑤---|
83
⑤⑤⑤⑤ |①-②-|
口口口口 |③---|
口①②③ |④-⑤-|
口④④口 |----|
84
口口口口 |①---|
口口③口 |②---|
②①④口 |③-④-|
口口⑤口 |⑤---|
85
①口口① |①---|
口口口口 |----|
口口口口 |----|
口口口口 |----|

不確定度: 0

最終更新:2016年04月18日 00:44