This game
鈴木このみ

BASIC

Level: 4
BPM: 147
Notes: 208

1
口口口口 |----|
口口口口 |----|
口口口口 |----|
口口口口 |----|
2
口口口口 |①---|
①口口口 |----|
口口口口 |----|
口口口口 |----|
3
口口口口 |①---|
口口口① |----|
口口口口 |----|
口口口口 |----|
4
口口口口 |①---|
①口口口 |----|
口口口口 |----|
口口口口 |----|
5
口口口口 |①---|
口口口① |----|
口口口口 |----|
口口口口 |----|
6
①②口口 |①---|
①②口口 |--②-|
口口口口 |----|
口口口口 |----|
7
口口②① |①---|
口口②① |--②-|
口口口口 |----|
口口口口 |----|
8
①②口口 |①---|
①②口口 |--②-|
口口口口 |----|
口口口口 |----|
9
口口②① |①---|
口口②① |--②-|
口③③口 |----|
口口口口 |③---|
10
口口口口 |①---|
口①②③ |--②-|
口口口口 |----|
口口口口 |③---|
11
口口口口 |①---|
口口口口 |----|
口①①口 |----|
口口口口 |----|
12
口口口口 |①---|
③②①口 |--②-|
口口口口 |----|
口口口口 |③---|
13
口口口口 |①---|
③口口③ |--②-|
②口口② |----|
①口口① |③---|
14
口口口口 |①---|
口①②③ |--②-|
口口口口 |----|
口口口口 |③---|
15
口口口口 |①---|
口口口口 |----|
口①①口 |----|
口口口口 |----|
16
口口口口 |①---|
③②①口 |--②-|
口口口口 |----|
口口口口 |③---|
17
口③③口 |①---|
口②②口 |--②-|
口①①口 |----|
口口口口 |③---|
18
口口口⑤ |①---|
口②口④ |②---|
①口③口 |③---|
口口口口 |④-⑤-|
19
口口口⑤ |①---|
口②口④ |②---|
①口③口 |③---|
口口口口 |④-⑤-|
20
口口口⑤ |①---|
口②口④ |②---|
①口③口 |③---|
口口口口 |④-⑤-|
21
⑥口口⑥ |①--②|
④②②④ |--③-|
口⑤⑤口 |-④--|
③①①③ |⑤-⑥-|
22
口口口⑤ |①---|
口②口④ |②---|
①口③口 |③---|
口口口口 |④-⑤-|
23
口口口⑤ |①---|
口②口④ |②---|
①口③口 |③---|
口口口口 |④-⑤-|
24
口口口⑤ |①---|
口②口④ |②---|
①口③口 |③---|
口口口口 |④-⑤-|
25
口口口口 |①---|
口①①口 |--②-|
口②②口 |----|
口③③口 |③---|
26
口口口口 |①---|
①口口① |----|
①口口① |----|
口口口口 |----|
27
口口口口 |①---|
口口①口 |----|
口②口口 |②---|
口口口口 |----|
28
口口口口 |①---|
口②口口 |----|
口口①口 |②---|
口口口口 |----|
29
口口口口 |①---|
口口口口 |----|
口口口② |②---|
口①①口 |----|
30
口口口① |①---|
口口口口 |----|
②口口口 |②---|
口口口口 |----|
31
①口口口 |①---|
口②②口 |----|
口口口口 |②---|
口口口口 |----|
32
口口口口 |①---|
口口口口 |----|
口口口口 |②---|
①①②② |----|
33
口口口口 |①---|
口口口口 |②---|
④③②① |③---|
口口口口 |④---|
34
口①①口 |①---|
口口口口 |----|
口口口口 |----|
口口口口 |----|
35
口口口口 |①---|
口⑤口口 |②---|
口③④② |③---|
①口口① |④-⑤-|
36
口①口口 |①---|
口⑤口口 |②---|
口③④② |③---|
口口口口 |④-⑤-|
37
口①口口 |①---|
口⑤口口 |②---|
口③④② |③---|
口口口口 |④-⑤-|
38
口①口口 |①---|
口口口口 |--②-|
②口③② |----|
口口口口 |--③-|
39
口口口② |①---|
口口口口 |--②-|
口①口口
口口口口

口口口口
口口口③
口④口口 |③---|
口口口口 |--④-|
40
②口口口 |①---|
③口口口 |--②-|
口口①口 |③---|
口口口口 |----|
41
口口口口 |①---|
③口口③ |--②-|
②口口② |----|
①口口① |③---|
42
口②②口 |①---|
口③③口 |----|
口①①口 |②---|
口口口口 |③---|
43
口口口口 |①---|
口⑤口口 |②---|
口③④② |③---|
①口口① |④-⑤-|
44
口①口口 |①---|
口⑤口口 |②---|
口③④② |③---|
口口口口 |④-⑤-|
45
口①口口 |①---|
口⑤口口 |②---|
口③④② |③---|
口口口口 |④-⑤-|
46
口①口口 |①---|
口口口口 |--②-|
②口口② |----|
口口口口 |----|
47
口口口口 |①---|
④③②① |②---|
口口口口 |③---|
口口口口 |④---|
48
口口口口 |①---|
口口口口 |②---|
①②③④ |③---|
口口口口 |④---|
49
①口口① |①---|
②口口② |--②-|
口口口口 |----|
口口口口 |----|
50
口口口口 |----|
口口口口 |----|
口口口口 |----|
口口口口 |----|
51
口口口口 |①---|
④③②① |②---|
口口口口 |③---|
口口口口 |④---|
52
口口口口 |①---|
②口口② |----|
口口口口 |②---|
口①①口 |----|
53
①①①① |①---|
口口口口 |----|
口口口口 |----|
口口口口 |----|
54
口口口口 |----|
口口口口 |----|
口口口口 |----|
口口口口 |----|
55
口口口口 |①---|
口口口口 |----|
口①①口 |----|
口口口口 |----|

不確定度: 0

最終更新:2016年04月11日 22:31