さよならトリップ
Dormir

EXTREME

Level: 9
BPM: 133
Notes: 654

1
口口口口 |----|
口口口口 |----|
口口口口 |----|
口口口口 |----|
2
⑤③④⑥ |①-②-|
口③口⑥ |③-④-|
⑦口②口 |⑤-⑥-|
口①口⑧ |⑦-⑧-|
3
口口④④ |①-②-|
口③口口 |③-④-|
口①②口
口①口口

⑤口口口
口口⑥⑥
⑦⑦口口 |⑤-⑥-|
口口口⑧ |⑦-⑧-|
4
⑤③④⑥ |①-②-|
口③口⑥ |③-④-|
⑦口②口 |⑤-⑥-|
①①口⑧ |⑦-⑧-|
5
⑤口④口 |①-②-|
⑦③④⑥ |③-④-|
⑦①②口 |⑤-⑥-|
口①口⑧ |⑦-⑧-|
6
⑤③④⑥ |①-②-|
⑤③③⑥ |③-④-|
⑦口②口 |⑤-⑥-|
⑦①①⑧ |⑦-⑧-|
7
口③④④ |①-②-|
口③口口 |③-④-|
口①②口
口①①口

⑤口口口
⑤口⑥⑥
⑦⑦口⑦ |⑤-⑥-|
口口口⑧ |⑦-⑧-|
8
口③④口 |①-②-|
口③③口 |③-④-|
口口②口
①①①口

⑤口口⑥
⑤口口⑥
⑦口口口 |⑤-⑥-|
⑦口口⑧ |⑦-⑧-|
9
口③④口 |①-②-|
口③④口 |③-④-|
口①②口
口①①口

⑤⑧口口
⑤口口⑥
⑦口口⑦ |⑤-⑥-|
⑦口⑧口 |⑦-⑧-|
10
④口①口 |①---|
②口口③ |--②-|
③口口② |③---|
口①口④ |--④-|
11
口口④① |①---|
口②③口 |--②-|
④③②口 |③---|
①口口口 |--④-|
12
③④口口 |①---|
⑤②口① |②-③-|
口口②⑤ |④-⑤-|
⑥①④③ |--⑥-|
13
口口口③ |①-②-|
口口②③ |③---|
口①②口
口①口口

口口口口
口口口口
④口口口 |----|
口④口口 |--④-|
14
口口口口 |①---|
①口口口 |--②-|
口①口②
口口②口

口口口口
④口口③
口④③口 |③---|
口口口口 |--④-|
15
①口口③ |①---|
口①③② |--②-|
④口②口 |③---|
口口口口 |--④-|
16
口口口口 |①---|
口口口口 |②-③-|
口②③①
口③②口

口口口④
口口⑤口
口⑤口口 |----|
④口口口 |④-⑤-|
17
②③⑤口 |①-②-|
④①口口 |③-④-|
⑤口①④ |----|
口口③② |--⑤-|
18
口口口① |①---|
③②④口 |--②-|
口①口口 |③---|
④口③② |--④-|
19
③②口④ |①---|
口口④① |--②-|
口口③② |③---|
口①口口 |--④-|
20
口口口口 |①---|
①口口口 |②---|
口①口口
②口口②

③④口③
口口④口
③④口③ |③-④-|
口口④口 |----|
21
④口④口 |①-②-|
③③口口 |③-④-|
②口②口
①口口①

口口口口
口口口口
口口口口 |----|
⑤⑤口口 |--⑤-|
22
③③①① |①---|
口口口④ |--②-|
④口口口 |③---|
口口②② |--④-|
23
口口口口 |①---|
②①③口 |--②-|
口③①② |③---|
口④④口 |--④-|
24
口口口口 |①-②-|
②③③① |--③-|
口②①口
口口口口

④口口④
口口口口
口⑤口口 |----|
口口口口 |④-⑤-|
25
口口口口 |①-②-|
④②③口 |③-④-|
①口①口 |----|
③②④口 |----|
26
口口口口 |----|
口④②口 |①-②-|
口⑤⑤口 |③-④-|
①口口③ |--⑤-|
27
⑨口口⑤ |①-②-|
①⑩⑥② |③-④-|
③⑦⑪④ |⑤⑥⑦⑧|
⑧口口⑫ |⑨⑩⑪⑫|
28
口口口口 |----|
⑤③②⑥ |①-②-|
口口口口 |③-④-|
口①④口 |⑤-⑥-|
29
⑤口口⑨ |①-②-|
口⑥⑩口 |③-④-|
①⑪⑦② |⑤⑥⑦⑧|
⑫③④⑧ |⑨⑩⑪⑫|
30
口口口⑥ |----|
③口口② |①-②-|
①口口④ |③-④-|
⑤口口口 |⑤-⑥-|
31
①口④口 |①-②-|
口口口口 |③-④-|
口口口口
口③口②

⑨口口⑤
口⑩⑥口
口⑦⑪口 |⑤⑥⑦⑧|
⑧口口⑫ |⑨⑩⑪⑫|
32
口①①口 |----|
①⑤④① |①---|
②口口③ |②-③-|
④②③⑤ |④-⑤-|
33
②口口② |①-②-|
③口口③ |③-④-|
口①①口 |----|
口④④口 |----|
34
⑤⑧⑧⑤ |①-②-|
③④②① |③-④-|
⑦⑥⑥⑦ |⑤-⑥-|
②①③④ |⑦-⑧-|
35
口口口② |①---|
①③②① |②-③-|
③口口口
口①①口

口④④口
⑤口口⑤
口⑥⑥口 |④-⑤-|
⑦口口⑦ |⑥-⑦-|
36
口口口口 |①---|
③口口③ |②-③-|
①口口①
口②②口

⑤⑥⑥④
口口口口
⑦④⑤⑦ |④-⑤-|
口口口口 |⑥-⑦-|
37
③口口③ |①-②-|
口②①口 |③---|
口③③口 |----|
口①②口 |----|
38
①③③② |①-②-|
①④口② |③-④-|
④口口口
口口口口

口口口⑦
口口⑤口
口⑥⑥⑤ |⑤---|
⑦口口口 |⑥-⑦-|
39
③②①口 |①-②-|
④口口口 |③-④-|
口口口④
口①②③

⑧口口口
口⑦⑥⑤
⑤⑥⑦口 |⑤-⑥-|
口口口⑧ |⑦-⑧-|
40
口①②③ |①-②-|
口口④口 |③-④-|
口④口口
③②①口

口口口⑧
⑥⑤口⑦
⑦口⑤⑥ |⑤-⑥-|
⑧口口口 |⑦-⑧-|
41
口②①口 |①-②-|
口③④口 |③-④-|
口④③口 |----|
口①②口 |----|
42
⑨⑦⑧⑬ |①②③④|
⑤⑩⑭⑥ |⑤⑥⑦⑧|
③⑮⑪④ |⑨⑩⑪⑫|
⑯①②⑫ |⑬⑭⑮⑯|
43
⑬⑧⑦⑨ |①②③④|
⑥⑭⑩⑤ |⑤⑥⑦⑧|
④⑪⑮③ |⑨⑩⑪⑫|
⑫②①⑯ |⑬⑭⑮⑯|
44
⑨⑦⑧⑬ |①②③④|
⑤⑩⑭⑥ |⑤⑥⑦⑧|
③⑮⑪④ |⑨⑩⑪⑫|
⑯①②⑫ |⑬⑭⑮⑯|
45
⑬⑧⑦⑨ |①②③④|
⑥⑭⑩⑤ |⑤⑥⑦⑧|
④⑪⑮③ |⑨⑩⑪⑫|
⑫②①⑯ |⑬⑭⑮⑯|
46
⑨⑦⑧⑬ |①②③④|
⑤⑩⑭⑥ |⑤⑥⑦⑧|
③⑮⑪④ |⑨⑩⑪⑫|
⑯①②⑫ |⑬⑭⑮⑯|
47
⑬⑧⑦⑨ |①②③④|
⑥⑭⑩⑤ |⑤⑥⑦⑧|
④⑪⑮③ |⑨⑩⑪⑫|
⑫②①⑯ |⑬⑭⑮⑯|
48
⑨⑦⑧⑬ |①②③④|
⑤⑩⑭⑥ |⑤⑥⑦⑧|
③⑮⑪④ |⑨⑩⑪⑫|
⑯①②⑫ |⑬⑭⑮⑯|
49
口⑧⑦口 |①②③④|
⑥口口⑤ |⑤⑥⑦⑧|
④口口③
口②①口

口口口⑨
口口⑩口
口⑪口口 |⑨⑩⑪-|
口⑫⑫口 |⑫---|
50
口口②③ |①---|
①口口① |②-③-|
口②③口
口口口口

口④口口
④口⑤⑤
⑥口口口 |--④-|
口⑥口口 |⑤-⑥-|
51
口口口口 |①---|
口②③口 |②-③-|
口口①①
口口②③

口⑥⑤⑥
口口口口
口④⑤④ |--④-|
口口口口 |⑤-⑥-|
52
①口口口 |①---|
口③②口 |②-③-|
①口口口
③②口口

④口口口
口口口口
口④口口 |----|
口口口口 |--④-|
53
口②口口 |①-②-|
口口③① |③-④-|
④口②④ |----|
⑤③①⑤ |⑤---|
54
③②口口 |①---|
口①①口 |②-③-|
口③②口
口口口口

口口④口
⑤⑤口④
口口口⑥ |--④-|
口口⑥口 |⑤-⑥-|
55
口口口口 |①---|
口③②口 |②-③-|
①①口口
③②口口

⑥⑤⑥口
口口口口
④⑤④口 |--④-|
口口口口 |⑤-⑥-|
56
口口口① |①---|
口②③口 |②-③-|
口口口①
口口②③

口口口⑤
④⑥口口
口口⑤口 |--④-|
口④⑥口 |⑤-⑥-|
57
④③①④ |①-②-|
④口②④ |③-④-|
③①口口 |----|
口口口② |----|
58
口口①口 |①---|
口①口① |----|
口口①口 |----|
口口口口 |----|
59
口口口口 |①---|
口①口口 |----|
①口①口 |----|
口①口口 |----|
60
口①①口 |①---|
①口口① |----|
①口口① |----|
口口口口 |----|


不确定度: 0

タグ:

+ タグ編集
  • タグ:

このサイトはreCAPTCHAによって保護されており、Googleの プライバシーポリシー利用規約 が適用されます。

最終更新:2012年11月10日 13:58