This game
鈴木このみ

ADVANCED

Level: 7
BPM: 147
Notes: 422

1
口口口口 |----|
口口口口 |----|
口口口口 |----|
口口口口 |----|
2
⑥口口口 |①--②|
口①口⑤ |--③-|
④②口口 |--④-|
口③口口 |⑤-⑥-|
3
口口口⑥ |①--②|
⑤口①口 |--③-|
口口②④ |--④-|
口口③口 |⑤-⑥-|
4
⑥口口口 |①--②|
口①口⑤ |--③-|
④②口口 |--④-|
口③口口 |⑤-⑥-|
5
口口口⑥ |①--②|
⑤口①口 |--③-|
口口②④ |--④-|
口口③口 |⑤-⑥-|
6
⑥口口口 |①--②|
口①①⑤ |--③-|
④②②口 |--④-|
口③③口 |⑤-⑥-|
7
口口口⑥ |①--②|
⑤①①口 |--③-|
口②②④ |--④-|
口③③口 |⑤-⑥-|
8
⑥口口口 |①--②|
口①①⑤ |--③-|
④②②口 |--④-|
口③③口 |⑤-⑥-|
9
⑤口口⑤ |①--②|
④①①④ |--③-|
口②②口 |--④-|
口③③口 |⑤---|
10
口口口口 |①--②|
口③③口 |--③-|
⑤②①④ |--④-|
口⑦⑥口 |⑤-⑥⑦|
11
口口口口 |----|
口口口口 |----|
口②口口 |----|
口口①口 |--①②|
12
②口口③ |①--②|
口④①口 |--③-|
口⑥⑤口 |--④-|
口口口口 |⑤-⑥-|
13
口④④口 |①--②|
①口口① |--③-|
②口口② |--④-|
③⑤⑤③ |⑤---|
14
口口口口 |①--②|
口口③口 |--③-|
④②①⑤ |--④-|
口⑥⑦口 |⑤-⑥⑦|
15
口口口口 |----|
①口口口 |----|
口口口口 |----|
口口口口 |--①-|
16
口口口口 |①--②|
⑤口口④ |--③-|
①③口⑥ |--④-|
口口②口 |⑤-⑥-|
17
①口口① |①--②|
口②②口 |--③-|
口口口口
③口口③

⑤口口⑤
⑤口口⑤
口④④口 |-④--|
口口口口 |⑤---|
18
口口口口 |--①-|
口⑥⑦⑤ |②-③④|
口④③口 |-⑤-⑥|
②⑧⑧① |⑦-⑧-|
19
口⑧⑧口 |--①-|
口③④口 |②-③④|
①⑦⑥② |-⑤-⑥|
⑤口口口 |⑦-⑧-|
20
口口口口 |--①-|
口⑥⑦⑤ |②-③④|
口④③口 |-⑤-⑥|
②⑧⑧① |⑦-⑧-|
21
②口口② |①--②|
口口口口 |--③-|
口③③口
①口口①

⑥④④⑥
口口口口
口口口口 |-④--|
口⑤⑤口 |⑤-⑥-|
22
口口口⑤ |--①-|
口④③口 |②-③④|
②⑥⑦① |-⑤-⑥|
口⑧⑧口 |⑦-⑧-|
23
口⑧⑧⑤ |--①-|
口④③口 |②-③④|
②⑥⑦① |-⑤-⑥|
口口口口 |⑦-⑧-|
24
口口口⑤ |--①-|
口④③口 |②-③④|
②⑥⑦① |-⑤-⑥|
口⑧⑧口 |⑦-⑧-|
25
口口口③ |①--②|
②⑥口③ |--③-|
②口⑤① |--④-|
口④口① |⑤-⑥-|
26
口①①口 |①---|
④口口口 |----|
②口口③ |--②-|
口口口口 |③-④-|
27
口②口⑤ |①---|
口口③① |--②③|
口④口口 |④---|
口口口口 |--⑤-|
28
②口①口 |①---|
口⑧③口 |②-③④|
口④⑦口 |--⑤-|
⑥口口⑤ |⑥-⑦⑧|
29
③口口③ |----|
②口口② |----|
①口口① |①--②|
口口口口 |--③-|
30
④①①④ |①---|
③口口③ |----|
②口口② |②--③|
口口口口 |--④-|
31
口①①口 |①---|
口口②口 |--②③|
口③⑥口 |④---|
口⑤④口 |--⑤⑥|
32
②口口② |①--②|
口①③口 |--③-|
口④⑤口 |④-⑤-|
口⑥⑦口 |⑥-⑦-|
33
口①①口 |①--②|
④②②④ |--③-|
⑤③③⑤ |④--⑤|
⑥口口⑥ |--⑥-|
34
①①①① |①--②|
②②②② |--③-|
③③③③ |----|
口口口口 |----|
35
②口①① |①---|
口⑤口口 |②---|
口③④口 |③--④|
①①口② |--⑤-|
36
②口①口 |①---|
口⑤口① |②---|
①③④口 |③--④|
口①口② |--⑤-|
37
②口①口 |①---|
口口口① |②---|
①口口口
口①口②

口口口口
口④③口
口③④口 |③--④|
口⑤⑤口 |--⑤-|
38
①口口① |①--②|
②口口② |--③-|
③⑤口③ |----|
口口④口 |--④⑤|
39
口口口口 |①---|
口②①口 |--②③|
⑥口③口 |④---|
口④口⑤ |--⑤⑥|
40
口⑤口口 |①---|
②口口① |--②③|
口⑤口③ |④---|
④口口口 |--⑤-|
41
口口①口 |①--②|
②口口② |--③-|
口口①⑥ |--④-|
⑤③③④ |⑤-⑥-|
42
口口口口 |①---|
口①①口 |--②-|
口②②口
口口口口

③口口③
口④④口
口口口口 |③---|
口口口口 |④---|
43
口①口② |①---|
①口⑤口 |②---|
口④③① |③--④|
②口①口 |--⑤-|
44
口①口② |①---|
①口⑤口 |②---|
口④③① |③--④|
②口①口 |--⑤-|
45
口①口② |①---|
①口口口 |②---|
口口口①
②口①口

口口口口
④口口④
口③③口 |③--④|
口⑤⑤口 |--⑤-|
46
口①①口 |①--②|
口②②口 |--③-|
⑤③③口 |----|
口口口④ |--④⑤|
47
口③③口 |①--②|
口口口① |--③-|
口口口口
口②②口

⑤口口④
口口口⑥
口口口口 |--④-|
口口口口 |⑤-⑥-|
48
口口口口 |①--②|
①口口口 |--③-|
口③②口 |--④-|
⑤③②④ |--⑤-|
49
口③③口 |①--②|
口①①口 |--③-|
口②②口 |----|
口口口口 |----|
50
口口口口 |----|
口口口口 |----|
口②口口 |----|
口口①口 |--①②|
51
③口口③ |①--②|
口口①口 |--③-|
口口口口
②口口②

口口口口
口⑦⑥口
口⑤口口 |--④-|
口④④口 |⑤-⑥⑦|
52
③口口③ |----|
①口口① |----|
②口口② |①--②|
口口口口 |--③-|
53
口口口口 |①--②|
③①①③ |--③-|
④②②④ |-④--|
⑤⑤⑤⑤ |⑤---|
54
①①①① |①---|
口口口口 |----|
口③口口 |----|
口口②口 |--②③|
55
口口口口 |①---|
口口①口 |----|
口口口口 |----|
口口口口 |----|

不確定度: 0

最終更新:2016年04月11日 22:31