白い雪のプリンセスは
のぼる↑

BASIC

Level: 4
BPM: 200
Notes: 282

1
口口口口 |----|
口口口口 |----|
口口口口 |----|
口口口口 |----|
2
口口口口 |----|
口口口口 |----|
口口口口 |----|
口口口口 |----|
3
口口口口 |----|
口口口口 |----|
口口口口 |----|
口口口口 |----|
4
口口口口 |----|
口口口口 |----|
口口口口 |----|
口口口口 |----|
5
口口口口 |----|
口①①口 |----|
口口口口 |----|
口口口口 |--①-|
6
口口口口 |----|
口口口口 |----|
口①①口 |----|
口口口口 |--①-|
7
口口口口 |----|
口口口口 |----|
口口口口 |----|
①口口① |--①-|
8
口口口口 |----|
口口口口 |----|
①口口① |----|
口口口口 |--①-|
9
口口口口 |----|
①口口① |----|
口口口口 |----|
口口口口 |--①-|
10
①口口① |----|
口口口口 |----|
口口口口 |----|
口口口口 |--①-|
11
口①①口 |----|
口口口口 |----|
口口口口 |----|
口口口口 |--①-|
12
口口口口 |----|
口①①口 |----|
口口口口 |----|
口口口口 |--①-|
13
口口口口 |----|
口口口口 |----|
口①①口 |----|
口口口口 |--①-|
14
口口口口 |----|
口口口口 |----|
口口口口 |----|
口口口口 |----|
15
口口口口 |----|
口口口口 |----|
口口口口 |----|
口口口口 |----|
16
①①②② |①---|
口口口口 |----|
口口口口 |----|
口口口口 |--②-|
17
口口口口 |----|
口口口口 |----|
口口口口 |----|
口口口口 |----|
18
口口口口 |①---|
口①③口 |②---|
口②④口 |③---|
口口口口 |④---|
19
①②③口 |①---|
口口口口 |②---|
口口口口 |③---|
口口口口 |----|
20
口口口口 |①---|
口口口口 |②---|
④口口① |③---|
口③②口 |④---|
21
口口口口 |①---|
口④①口 |②---|
口②③口 |③---|
口口口口 |④---|
22
口口口① |①---|
口口口② |②---|
口口口③ |③---|
口口口口 |----|
23
①口口口 |①---|
②口口口 |②---|
③口口口 |③---|
口口口口 |----|
24
口口口口 |①---|
口口口口 |②---|
口④③口 |③---|
口②①口 |④---|
25
口口口口 |①---|
②口口① |----|
口口口口 |②---|
口口口口 |----|
26
口口口口 |①---|
口①③口 |②---|
口②④口 |③---|
口口口口 |④---|
27
①②③口 |①---|
口口口口 |②---|
口口口口 |③---|
口口口口 |----|
28
口口口口 |①---|
口口口口 |②---|
④口口① |③---|
口③②口 |④---|
29
口口口口 |①---|
口④①口 |②---|
口②③口 |③---|
口口口口 |④---|
30
口口口① |①---|
口口口② |②---|
口口口③ |③---|
口口口口 |----|
31
①口口口 |①---|
②口口口 |②---|
③口口口 |③---|
口口口口 |----|
32
口口口口 |①---|
口口口口 |----|
口口口口 |----|
口①①口 |----|
33
口口口口 |①---|
口口口口 |----|
口①①口 |----|
口口口口 |----|
34
口口口口 |①---|
口①①口 |----|
口口口口 |----|
口口口口 |----|
35
①口口① |①---|
②口口② |----|
口口口口 |②---|
口口口口 |----|
36
口口口口 |①---|
口口口口 |----|
①口口① |----|
口口口口 |----|
37
口口口口 |----|
口口口口 |----|
口口口口 |----|
口口①口 |①---|
38
口口口口 |①---|
口口口口 |----|
口口口口 |----|
口①口口 |----|
39
口口口口 |①---|
口口②② |----|
口口①① |②---|
口口口口 |----|
40
口口①① |①---|
口口口口 |----|
口口口口 |----|
口口口口 |----|
41
口口口口 |----|
口①口口 |----|
口口口口 |----|
口口口口 |①---|
42
口口口口 |①---|
口口口口 |----|
口口①口 |----|
口口口口 |----|
43
①口口① |①---|
②口口② |----|
口口口口 |②---|
口口口口 |----|
44
口口口口 |①---|
口口口口 |----|
①口口① |----|
口②口口 |②---|
45
口口口口 |①---|
口口口口 |----|
口②口口 |----|
口口①口 |②---|
46
口口口口 |①---|
②口口② |----|
口口①口 |②---|
口口口口 |----|
47
口口口口 |①---|
口口口口 |----|
①口口① |②---|
②口口② |----|
48
口口口口 |①---|
口口口口 |----|
口①口口 |----|
口口口口 |----|
49
口口口口 |①---|
口①口口 |----|
口口口口 |----|
口口口口 |----|
50
口①口口 |①---|
口口口口 |----|
口口口口 |----|
口口口口 |----|
51
口口口口 |①---|
口②口口 |----|
口口①口 |②---|
口口口口 |----|
52
口口①① |①---|
口口口② |----|
口口口口 |②---|
口口口口 |----|
53
①①口口 |①---|
②口口口 |----|
口口口口 |②---|
口口口口 |----|
54
口口口口 |①---|
口口口口 |----|
口①①口 |②---|
口②②口 |----|
55
口口口口 |①---|
口口②口 |----|
①口口① |②---|
口口口口 |----|
56
口口口口 |①---|
口②口口 |----|
口①口口 |②---|
口口口口 |----|
57
口口口② |①---|
口口口口 |----|
口口①口 |②---|
口口口口 |----|
58
口口口口 |①---|
口口口口 |----|
口①口口 |----|
口口口口 |----|
59
口口口口 |①---|
口②口口 |----|
口口①口 |②---|
口口口口 |----|
60
口口①① |①---|
口口口② |----|
口口口口 |②---|
口口口口 |----|
61
①①口口 |①---|
②口口口 |----|
口口口口 |②---|
口口口口 |----|
62
口口口口 |①---|
口口口口 |----|
口①①口 |②---|
口②②口 |----|
63
①口口① |①---|
②口口② |----|
口口口口 |②---|
口口口口 |----|
64
口口口口 |①---|
口②口口 |----|
①口口① |②---|
口口口口 |----|
65
口口口② |①---|
口口口口 |----|
口口①口 |②---|
口口口口 |----|
66
口口口口 |①---|
口口口口 |----|
口口口口 |----|
①①口口 |----|
67
口口口口 |①---|
口口口口 |----|
口口口口 |----|
口口①① |----|
68
①口口① |①---|
②口口② |--②-|
③口口③ |----|
口口口口 |③---|
69
口④口口 |①---|
口口③口 |②---|
口②口口 |③---|
口口①口 |④---|
70
口口①① |①---|
口②口③ |②---|
口④口口 |③---|
口口口口 |④---|
71
①①口口 |①---|
③口②口 |②---|
口口④口 |③---|
口口口口 |④---|
72
口口口口 |①---|
口口口口 |②---|
口口口口 |③---|
①③④② |④---|
73
口口口口 |①---|
口口②口 |----|
①③口① |②---|
口口口口 |③---|
74
口口口口 |①---|
口②口口 |----|
口口③口 |②---|
口口①口 |③---|
75
口口口③ |①---|
口口②口 |②---|
口口口口 |③---|
口①口口 |----|
76
口口口口 |①---|
口口口口 |----|
①①口口 |----|
口口口口 |----|
77
口③口口 |①---|
口口②口 |----|
口口①① |②---|
口口口口 |③---|
78
口口①① |①---|
口②口③ |②---|
口④口口 |③---|
口口口口 |④---|
79
①①口口 |①---|
③口②口 |②---|
口口④口 |③---|
口口口口 |④---|
80
口口口口 |①---|
口口口口 |②---|
口口口口 |③---|
①③④② |④---|
81
①口口① |①---|
②口口② |②---|
③口口③ |③---|
④口口④ |④---|
82
口②口口 |①---|
口口③口 |----|
口①①口 |②---|
口口口口 |③---|
83
口口口口 |①---|
口口口口 |②---|
①口口口 |③---|
③口口② |----|
84
口口口口 |①---|
口③③口 |--②-|
口②②口 |----|
口①①口 |③---|
85
①口口口 |①---|
口口口② |②---|
③口口口 |③---|
口口口④ |④---|
86
口口口口 |①---|
口口口口 |----|
口①口口 |----|
口口口口 |----|
87
口口口② |----|
口口口① |----|
口口口口 |①---|
口口口口 |--②-|
88
口口口口 |----|
口①口口 |----|
口口口口 |----|
口口口口 |①---|
89
口口口口 |①---|
④口口口 |②---|
口口①③ |③---|
口②口口 |④---|
90
口口①口 |①---|
口口口口 |----|
口口口口 |----|
口口口口 |----|
91
口口口口 |----|
口口口口 |----|
口口口口 |----|
口口口口 |----|
92
口①①口 |----|
口口口口 |----|
口口口口 |----|
口口口口 |--①-|
93
口口口口 |----|
口口口口 |①---|
①③口口 |②---|
口口口② |③---|
94
口口口口 |①---|
口口①口 |----|
口口口口 |----|
口口口口 |----|
95
口口口口 |----|
口口口口 |----|
口口口口 |----|
口口口口 |----|
96
口口口口 |----|
口口口口 |----|
口口口口 |----|
口口口口 |----|
97
口口口口 |----|
口口口口 |----|
口口口口 |----|
口口口口 |----|
98
①口口口 |①---|
②口口口 |②---|
③口口口 |③---|
④口口口 |④---|
99
口④口口 |①---|
口③口口 |②---|
口②口口 |③---|
口①口口 |④---|
100
口口①口 |①---|
口口②口 |②---|
口口③口 |③---|
口口④口 |④---|
101
口口口④ |①---|
口口口③ |②---|
口口口② |③---|
口口口① |④---|
102
口口①口 |①---|
口口②口 |②---|
口口③口 |③---|
口口④口 |④---|
103
口④口口 |①---|
口③口口 |②---|
口②口口 |③---|
口①口口 |④---|
104
②口口① |①---|
②口口① |--②-|
口③③口 |----|
口③③口 |③---|

不確定度: 0

最終更新:2016年04月11日 22:24