白い雪のプリンセスは
のぼる↑

ADVANCED

Level: 7
BPM: 200
Notes: 468

1
口口①① |----|
口口口口 |----|
口口口口 |----|
口口口口 |--①-|
2
口口口口 |----|
①①口口 |----|
口口口口 |----|
口口口口 |--①-|
3
口口口口 |----|
口口口口 |----|
口口①① |----|
口口口口 |--①-|
4
口口口口 |----|
口口口口 |----|
口口口口 |----|
①①口口 |--①-|
5
①口口① |----|
口口口口 |----|
口口口口 |----|
口口口口 |--①-|
6
口口口口 |----|
④①口④ |①---|
口口②口 |②---|
口③口口 |③-④-|
7
口口口口 |----|
口口①口 |①---|
④②口④ |②---|
口口③口 |③-④-|
8
口口口口 |----|
口①口口 |①---|
④口②④ |②---|
口③口口 |③-④-|
9
④口口④ |----|
②口③② |①-②-|
口①口口 |----|
口口口口 |③-④-|
10
口口口口 |----|
④①口④ |①---|
口口②口 |②---|
口③口口 |③-④-|
11
口口口口 |----|
口口①口 |①---|
④②口④ |②---|
口口③口 |③-④-|
12
口口口口 |----|
口①口口 |①---|
④口②④ |②---|
口③口口 |③-④-|
13
④口口④ |----|
②口③② |①-②-|
口①口口 |----|
口口口口 |③-④-|
14
口口口口 |----|
口①口口 |①---|
口②口口 |②---|
口③口口 |③---|
15
口口①口 |①---|
口口②口 |②---|
口口③口 |③---|
口口④口 |④---|
16
口③③口 |①-②-|
①口口② |----|
口口口口 |----|
口口口口 |--③-|
17
口口口口 |--①-|
口③②口 |②-③-|
口⑤④口 |④-⑤-|
①口⑥口 |⑥---|
18
口①②口 |①-②-|
③口口④ |③-④-|
⑤口口⑥ |⑤-⑥-|
口⑦⑧口 |⑦-⑧-|
19
口口口⑤ |①-②-|
口①②口 |③-④-|
口③④口 |----|
口口口口 |--⑤-|
20
口口口口 |--①-|
口①口口 |②-③-|
⑦③②⑥ |④-⑤-|
口⑤④口 |⑥-⑦-|
21
⑥⑥①口 |①-②-|
口②口口 |③-④-|
口口③口 |--⑤-|
④口口⑤ |--⑥-|
22
口口④④ |----|
口②口口 |①---|
口①③口 |②-③-|
口口口口 |--④-|
23
④④口口 |----|
口口口口 |①---|
口口②口 |②-③-|
口③①口 |--④-|
24
口口口口 |--①-|
口口①口 |②-③-|
⑥②口⑦ |④-⑤-|
④口③⑤ |⑥-⑦-|
25
①①口口 |①---|
口口②② |--②-|
口口口口 |----|
口口口口 |----|
26
口①②口 |①-②-|
③口口④ |③-④-|
⑤口口⑥ |⑤-⑥-|
口⑦⑧口 |⑦-⑧-|
27
口口口⑤ |①-②-|
口①②口 |③-④-|
口③④口 |----|
口口口口 |--⑤-|
28
口口口口 |--①-|
口①口口 |②-③-|
⑦③②⑥ |④-⑤-|
口⑤④口 |⑥-⑦-|
29
⑥⑥①口 |①-②-|
口②口口 |③-④-|
口口③口 |--⑤-|
④口口⑤ |--⑥-|
30
口口④④ |----|
口②口口 |①---|
口①③口 |②-③-|
口口口口 |--④-|
31
口口口口 |----|
口口口口 |①---|
④口②口 |②-③-|
④③①口 |--④-|
32
口口口口 |----|
口口口口 |----|
口口口口 |----|
口口口口 |----|
33
口口口口 |①---|
口口口口 |----|
口口口① |----|
口口口① |----|
34
口口口口 |①---|
口口口口 |----|
口①①口 |----|
口口口口 |----|
35
①①口口 |①---|
口口②② |②---|
③③口口 |③---|
口口④④ |④---|
36
口口口口 |①---|
口口口口 |----|
口口口口 |----|
①①口口 |----|
37
口口口① |①---|
口②口口 |----|
口口口口 |----|
口口口口 |②---|
38
②口口口 |①---|
口口①口 |----|
口口口口 |----|
口口口口 |②---|
39
口口⑤⑤ |①---|
口口④口 |②-③-|
口口口① |--④-|
口②③口 |--⑤-|
40
口口口口 |----|
口口口口 |----|
口口口口 |----|
口口口口 |----|
41
①口口口 |①---|
口口②口 |----|
口③口口 |----|
口口口口 |②-③-|
42
口口口口 |①---|
口口口口 |----|
口口口口 |----|
②口①② |②---|
43
①口口① |①---|
口③③口 |②---|
②④④② |③---|
口口口口 |④---|
44
口口口口 |①---|
口口口口 |----|
②口口口 |----|
口①①口 |②---|
45
口口口口 |①---|
口②口口 |----|
口口口① |----|
口口口口 |②---|
46
口口口口 |①---|
④口①口 |----|
口口口③ |②---③-|
②口口口 |--④---|
47
口口口① |①---|
口②③口 |②-③-|
口口口口 |----|
④口口口 |④---|
48
口口①口 |①---|
口②③口 |----|
口口口口 |----|
口口口口 |②-③-|
49
口口口口 |----|
口口口口 |----|
①口口口 |----|
口①口口 |①---|
50
口口口口 |①---|
口口口口 |----|
口口口① |----|
口口①口 |----|
51
口口口④ |①---|
口口③口 |②---|
口②口口 |③---|
①口口口 |④---|
52
①口口口 |①---|
口口②口 |----|
口口口口 |②---|
口口口口 |----|
53
口口口口 |①---|
口①口口 |----|
口口口② |②---|
口口口口 |----|
54
口口口口 |①---|
口口口口 |----|
口②②口 |②---|
口①①口 |----|
55
①口口① |①---|
口②口口 |----|
口口口口 |②---|
口口口口 |----|
56
口口口口 |①---|
口口②口 |----|
口口口口 |②---|
①口口口 |----|
57
口口口② |①---|
口口口口 |--②-|
口口口口 |----|
口口口① |----|
58
口口口口 |①---|
口④④口 |--②-|
口③③口 |--③-|
①②②口 |--④-|
59
口口口口 |----|
口口口口 |----|
①口口口 |①---|
口口口口 |----|
60
口口口① |①---|
口②口口 |----|
口口口口 |②---|
口口口口 |----|
61
①口口口 |①---|
口口②口 |----|
口口口口 |②---|
口口口口 |----|
62
口口口口 |①---|
口口口口 |----|
①口口口 |②---|
口口口② |----|
63
口②口口 |①---|
口口口① |----|
口口口口 |②---|
口口口口 |----|
64
口口口口 |①---|
口口口口 |----|
①口口口 |②---|
口口②口 |----|
65
口口口口 |①---|
口口②口 |----|
口①口口 |②---|
口口口口 |----|
66
①口口① |①---|
②口口② |----|
口口口口 |②---|
口口口口 |----|
67
口口口口 |①---|
口口口口 |----|
①口口① |②---|
②口口② |----|
68
口口口口 |①---|
③口口③ |--②-|
口②②口 |----|
口①①口 |③---|
69
口口口④ |①---|
口口③口 |②---|
口②口口 |③---|
①口口口 |④---|
70
①①口口 |①---|
口③口口 |--②-|
口④②口 |③---|
口口口口 |--④-|
71
口口①① |①---|
④口口③ |②---|
④口口③ |③---|
②②口口 |④---|
72
②②①① |①---|
口口口口 |②---|
④④③③ |③---|
口口口口 |④---|
73
③口口② |①---|
③口口② |----|
口口口口 |②---|
口①①口 |③---|
74
口口口口 |①---|
口口④口 |----|
③①①口 |②---|
口口口② |③-④-|
75
口口口口 |----|
口①口口 |①-②-|
口③②口 |----|
口口口口 |--③-|
76
⑤口口⑤ |①---|
①口口① |②-③-|
④口②④ |--④-|
③口口③ |--⑤-|
77
口口口② |----|
口口①口 |----|
口口口口 |①---|
口口口口 |②---|
78
①①口口 |①---|
口③口口 |--②-|
口④②口 |③---|
口口口口 |--④-|
79
口口①① |①---|
④口口③ |②---|
④口口③ |③---|
②②口口 |④---|
80
②②①① |①---|
口⑤⑤口 |②---|
④④③③ |③---|
口口口口 |④-⑤-|
81
①口口① |----|
口口口口 |①---|
口口口口 |②---|
②②③③ |③---|
82
口①①口 |①---|
口②口口 |----|
口口③口 |②---|
口口口口 |③---|
83
口②③口 |①---|
口口口口 |②-③-|
口口口口 |----|
口①口口 |----|
84
①口口① |①---|
②口口② |--②-|
③口口③ |----|
口口口口 |③---|
85
口口口口 |①---|
口⑤④口 |②---|
口①口口 |③---|
口③②口 |④-⑤-|
86
口口④④ |----|
③口口口 |①---|
②口口口 |②---|
①口口口 |③-④-|
87
③口口③ |----|
口②②口 |①---|
口口口口 |②---|
口口口① |--③-|
88
口④④口 |----|
③口口口 |①---|
②口口口 |②---|
①口口口 |③-④-|
89
④口口④ |----|
口②③口 |①---|
口①①口 |②-③-|
口口口口 |--④-|
90
④④口口 |----|
口口口③ |①---|
口口口② |②---|
口口口① |③-④-|
91
口口④④ |----|
③口口口 |①---|
②口口口 |②---|
①口口口 |③-④-|
92
口④④口 |----|
口口口③ |①---|
口口口② |②---|
口口口① |③-④-|
93
口口口口 |----|
②④④③ |①---|
②④④③ |②-③-|
口①①口 |--④-|
94
口口④④ |----|
③口口口 |①---|
②口口口 |②---|
①口口口 |③-④-|
95
④④口口 |----|
口口口③ |①---|
口口口② |②---|
口口口① |③-④-|
96
口口④④ |----|
③口口口 |①---|
②口口口 |②---|
①口口口 |③-④-|
97
⑥⑥口口 |--①-|
口③④④ |②-③-|
⑤⑤②口 |④-⑤-|
口①口口 |--⑥-|
98
口口④④ |----|
③口口口 |①---|
②口口口 |②---|
①口口口 |③-④-|
99
④④口口 |----|
口口口③ |①---|
口口口② |②---|
口口口① |③-④-|
100
口口④④ |----|
③口口口 |①---|
②口口口 |②---|
①口口口 |③-④-|
101
④④④口 |----|
口口口③ |①---|
口口口② |②---|
口口口① |③-④-|
102
口④④④ |----|
③口口口 |①---|
②口口口 |②---|
①口口口 |③-④-|
103
口口口口 |----|
口口口③ |①---|
口口口② |②---|
口口口① |③---|
104
口①①口 |①---|
口②②口 |--②-|
口③③口 |----|
口口口口 |③---|

不確定度: 0

最終更新:2016年04月11日 22:24