天国と地獄
UNISON SQUARE GARDEN

BASIC

Level: 4
BPM: 150
Notes: 301

1
口口口口 |----|
口口口口 |----|
口口口口 |----|
口口口口 |----|
2
口口口口 |①---|
口①口口 |----|
口口口口 |----|
口口口口 |----|
3
口口口口 |①---|
口口①口 |----|
口口口口 |----|
口口口口 |----|
4
口①①口 |①---|
口②②口 |--②-|
口③③口 |----|
口口口口 |③---|
5
口口口口 |--①-|
③口口口 |----|
口口口口 |②---|
②①①② |--③-|
6
口口口口 |①---|
口口口① |----|
口口口口 |----|
口口口口 |----|

口口口口 |----|
口口口口
口口口口
口口口口
7
①口口口 |①---|
①口口口 |----|
口口口口 |----|
口口口口 |----|
8
口口口① |①---|
口口口① |----|
口口口口 |----|
口口口口 |----|
9
口口口口 |①---|
口口口口 |----|
①口口口 |----|
①口口口 |----|
10
口口口口 |①---|
口口口口 |----|
口口口① |----|
口口口① |----|
11
口①①口 |①---|
口口口口 |----|
口口口口 |----|
口口口口 |----|
12
口口口口 |①---|
口①①口 |----|
口口口口 |----|
口口口口 |----|
13
口口口口 |①---|
口口口口 |----|
口①①口 |----|
口口口口 |----|
14
口口口口 |①---|
口口口口 |----|
口口口口 |----|
口①①口 |----|
15
口口口口 |--①-|
①②③④ |②-③-|
⑤口口⑥ |④--⑤|
口口口口 |--⑥-|
16
②口口① |①--②|
⑥⑤④③ |--③-|
口口口口 |④-⑤-|
口口口口 |⑥---|
17
⑥口口⑤ |--①-|
口口口口 |②-③-|
①②③④ |④--⑤|
口口口口 |--⑥-|
18
口口口口 |①--②|
①口口② |--③-|
⑥⑤④③ |④-⑤-|
⑦口口口 |⑥-⑦-|
19
①⑥⑦② |①-②-|
③口口④ |③-④-|
⑤口口口 |⑤---|
口口口口 |⑥-⑦-|
20
④口口⑤ |①-②-|
⑥①②⑦ |③---|
口③口口 |④-⑤-|
口口口口 |⑥-⑦-|
21
口口口口 |①---|
口口口口 |----|
①口口口 |----|
口口口口 |----|
22
口口口口 |①---|
口①①口 |----|
口口口口 |----|
口口口口 |----|
23
口口口口 |--①-|
①②③④ |②-③-|
口口口口 |④--⑤|
⑥口口⑤ |--⑥-|
24
⑥⑤④③ |①--②|
口口口口 |--③-|
①口口② |④-⑤-|
口口口口 |⑥---|
25
口口口口 |--①-|
①②③④ |②-③-|
口口口口 |④--⑤|
⑥口口⑤ |--⑥-|
26
口口口口 |①--②|
①口口② |--③-|
⑦口口口 |④-⑤-|
⑥⑤④③ |⑥-⑦-|
27
⑥①②⑦ |①-②-|
口③④口 |③-④-|
口⑤口口 |⑤---|
口口口口 |⑥-⑦-|
28
口④⑤口 |①-②-|
①⑥⑦② |③---|
③口口口 |④-⑤-|
口口口口 |⑥-⑦-|
29
口⑤口④ |①---|
口口口④ |②---|
③①口② |③---|
③口口② |④-⑤-|
30
口口①口 |①-②-|
⑥②③⑥ |③-④-|
⑥④⑤⑥ |⑤---|
口口口口 |⑥---|
31
口口口口 |----|
口口口口 |----|
口口口口 |----|
口口口口 |----|
32
口口口口 |--①-|
①②③④ |②-③-|
⑤⑥⑦口 |④-⑤-|
口口口口 |⑥-⑦-|
33
口口口口 |----|
口口口口 |----|
口口口口 |----|
口口口口 |----|
34
口口口口 |--①-|
①②③④ |②-③-|
⑤⑥⑦口 |④-⑤-|
口口口口 |⑥-⑦-|
35
口口口口 |----|
口口口口 |----|
口口口口 |----|
口口口口 |----|
36
口口口口 |--①-|
①②③④ |②-③-|
⑤⑥⑦口 |④-⑤-|
口口口口 |⑥-⑦-|
37
①⑥⑦② |①-②-|
③口口④ |③-④-|
⑤口口口 |⑤---|
口口口口 |⑥-⑦-|
38
⑦口口⑥ |①-②-|
⑦①②⑥ |③-④-|
⑤③口④ |⑤-⑥-|
⑤口口④ |⑦---|
39
口口口口 |----|
口口口口 |----|
口口口口
口口口口
40
口①①口 |①---|
口口口口 |----|
口口口口 |②---|
口②②口 |----|
41
④口口口 |①--②|
口③③口 |--③-|
口②②口 |----|
①口口① |--④-|
42
口①②③ |①-②-|
④⑤⑥⑦ |③-④-|
口口口⑧ |⑤-⑥-|
口口口口 |⑦-⑧-|
43
③口②口 |①--②|
④口口口 |--③-|
⑤口①口 |④---|
口口口口 |--⑤-|
44
口口口口 |①-②-|
⑤口口④ |③---|
口①②③ |④--⑤|
⑥口口口 |--⑥-|
45
⑦口口口 |①-②-|
口口口⑤ |③-④-|
⑥口口④ |⑤--⑥|
口①②③ |--⑦-|
46
口口口口 |①--②|
①④口② |--③-|
口口口口 |----|
口口口③ |--④-|
47
②口口② |①---|
口口①口 |----|
②口口② |②---|
口口口口 |----|
48
口①①口 |①---|
口口口口 |----|
口口口口 |②---|
口②②口 |----|
49
④口口口 |①--②|
口③③口 |--③-|
口②②口 |----|
①口口① |--④-|
50
口①②③ |①-②-|
⑦⑥⑤④ |③-④-|
⑧口口口 |⑤-⑥-|
口口口口 |⑦-⑧-|
51
③口口② |①--②|
④口口⑤ |--③-|
口口口① |④--⑤|
口口口⑥ |--⑥-|
52
口口口口 |①---|
口②③口 |--②-|
口口口① |③--④|
⑤口④口 |--⑤-|
53
口口⑦口 |①-②-|
口⑥口⑤ |③-④-|
①②③④ |⑤---|
口口口口 |⑥-⑦-|
54
②①口② |①---|
③口口口 |--②-|
口口口口 |----|
口口口口 |--③-|
55
口口口口 |①-②-|
口①②③ |③-④-|
⑦⑥⑤④ |⑤-⑥-|
⑧口口口 |⑦-⑧-|
56
①口口② |①---|
③口口④ |②---|
口口口口 |③---|
口口口口 |④---|
57
口①②口 |①-②-|
口③④口 |③-④-|
口⑤⑥口 |⑤-⑥-|
口⑦⑧口 |⑦-⑧-|
58
①口口② |①-②-|
③口口④ |③-④-|
⑤口口⑥ |⑤-⑥-|
⑦口口⑧ |⑦-⑧-|
59
⑥口口⑥ |①-②-|
口⑤口口 |③-④-|
口③④口 |⑤---|
口①②口 |⑥---|
60
口口口口 |①---|
口口口口 |----|
口口口口 |----|
口①①口 |----|
61
口口口口 |①---|
口口口口 |----|
口①①口 |----|
口口口口 |----|
62
口口口口 |①---|
口①①口 |----|
口口口口 |----|
口口口口 |----|
63
口①①口 |①---|
②口口② |----|
②口口② |--②-|
口口口口 |----|

不確定度: 0

最終更新:2016年04月11日 22:26