天国と地獄
UNISON SQUARE GARDEN

ADVANCED

Level: 7
BPM: 150
Notes: 498

1
口口口口 |----|
口口口口 |----|
口口口口 |----|
口口口口 |----|
2
口②口③ |①---|
②①口口 |-②--|
①口口③ |--③-|
口口口口 |----|
3
口口口口 |①---|
口②口③ |-②--|
②①口口 |--③-|
①口口③ |----|
4
口①①口 |-①--|
口②②口 |②--③|
口③③口 |--④-|
⑤④④⑤ |-⑤--|
5
③④④③ |①--②|
②⑤⑥② |--③-|
①口口① |-④--|
口⑤⑥口 |⑤-⑥-|
6
口口口口 |①②③④|
口口口口 |----|
①②③④ |----|
口口口口 |----|

口口口口 |----|
口口口口
口口口口
口口口口
7
①①口口 |①--②|
③④口口 |----|
口②口口 |--③-|
②口口口 |-④--|
8
口口①① |①--②|
口口③④ |----|
口口②口 |--③-|
口口口② |-④--|
9
①①口口 |①--②|
③④口口 |----|
口②口口 |--③-|
②口口口 |-④--|
10
口口①① |①--②|
口口口口 |----|
口口②口 |----|
口口口② |----|
11
口①①口 |①--②|
②口口② |--③-|
④③③④ |-④--|
④口口④ |----|
12
口①①口 |①--②|
②口口② |--③-|
④③③④ |-④--|
④口口④ |----|
13
口①①口 |①--②|
②口口② |--③-|
④③③④ |-④--|
④口口④ |----|
14
口①①口 |①--②|
②口口② |--③-|
④③③④ |-④--|
④口口④ |----|
15
口口③④ |--①-|
①②⑥口 |②-③-|
口口口口 |④--⑤|
口口口⑤ |--⑥-|
16
②口口口 |①--②|
口⑤⑥口 |--③-|
口③④口 |④-⑤-|
①口⑦⑦ |⑥-⑦-|
17
②③①① |①-②-|
口口口口 |③-④-|
口口④口
口口口口

口口口⑥
口口口口
⑦口口⑤ |⑤--⑥|
口口口口 |--⑦-|
18
口口口口 |①-②③|
①口口口 |-④⑤⑥|
口⑥口③
口④⑤②

⑧口口⑨
⑩口口口
口口⑦口 |⑦-⑧-|
口口口口 |⑨-⑩-|
19
⑥⑤口⑦ |①-②-|
⑥⑤口⑦ |③-④-|
①③④② |⑤---|
①③④② |⑥-⑦-|
20
⑥③口⑦ |①-②-|
⑥③口⑦ |③---|
④①②⑤ |④-⑤-|
④①②⑤ |⑥-⑦-|
21
④②③口 |①②--|
④②③口 |③--④|
口①口口 |----|
口①口口 |----|
22
口②口③ |-①--|
口②口③ |②--③|
口口①口 |----|
口口①口 |----|
23
①②口口 |--①-|
口口③④ |②-③-|
口口口口 |④--⑤|
⑥口口⑤ |--⑥-|
24
④口③⑤ |①-②③|
⑥口②⑦ |--④-|
⑧①口口 |⑤-⑥-|
口口口口 |⑦-⑧-|
25
口口④口 |--①-|
⑥③口口 |②-③-|
口口②⑤ |④--⑤|
口①口口 |--⑥-|
26
口⑩口⑧ |①-②③|
口口③口 |-④⑤⑥|
④①②⑤ |⑦-⑧-|
⑥⑨口⑦ |⑨-⑩-|
27
①口②口 |①-②-|
①③②④ |③-④-|
口③口④
口口口口

口⑥口口
⑥口口口
⑤口⑦口 |⑤---|
⑤口口⑦ |⑥-⑦-|
28
①④②⑦ |①-②-|
④①⑦② |③---|
③⑥口⑤ |④-⑤-|
⑥③⑤口 |⑥-⑦-|
29
①口口口 |①---|
口①口② |②---|
①口②口
口口口②

⑤⑤④口
口口④口
口③口口 |③---|
口③口口 |④-⑤-|
30
口口⑥⑥ |①-②-|
②②⑤⑤ |③-④-|
④④③③ |⑤---|
⑥⑥①① |⑥---|
31
口口口口 |----|
口口口口 |----|
口口口口 |----|
口口口口 |----|
32
口口⑦口 |--①-|
①②⑥⑤ |②-③-|
口口③④ |④-⑤-|
口口口口 |⑥-⑦-|
33
口口⑤② |①--②|
口口口④ |--③-|
口口口③ |④---|
口口口① |⑤---|
34
⑤⑥⑦口 |--①-|
④③口口 |②-③-|
①②口口 |④-⑤-|
口口口口 |⑥-⑦-|
35
口口⑤② |①--②|
口口口④ |--③-|
口口口③ |④---|
口口口① |⑤---|
36
口口口口 |--①-|
①②③口 |②-③-|
口口④⑤ |④-⑤-|
口口⑦⑥ |⑥-⑦-|
37
①口②口 |①-②-|
①③②④ |③-④-|
口③口④
口口口口

口⑥口口
⑥口口口
⑤口⑦口 |⑤---|
⑤口口⑦ |⑥-⑦-|
38
①⑤②④ |①-②-|
⑦①⑥② |③-④-|
③⑤口④ |⑤-⑥-|
⑦③⑥口 |⑦---|
39
口口口口 |----|
口口口口 |----|
口口口口
口口口口
40
口①①口 |①-②③|
②③⑩⑨ |-④⑤-|
⑦⑧⑤④ |⑥-⑦⑧|
口⑥⑥口 |-⑨⑩-|
41
口①①口 |①-②③|
②③口口 |-④⑤-|
⑥口⑤④ |----|
口口口口 |--⑥-|
42
口口口⑧ |①-②-|
④⑤⑥⑦ |③-④-|
口①②③ |⑤-⑥-|
口口口口 |⑦-⑧-|
43
口口①口 |①--②|
④口口口 |--③-|
⑤口口口 |④---|
③口②口 |--⑤-|
44
口口口⑤ |①-②-|
口②③④ |③-④-|
口①口口 |⑤--⑥|
⑦口口⑥ |--⑦-|
45
⑦口⑥口 |①-②-|
①②③口 |③-④-|
口口④口 |⑤--⑥|
口口⑤口 |--⑦-|
46
④口口③ |①--②|
①口口② |--③-|
口口口③ |----|
①口口② |--④-|
47
口口口⑦ |①②-③|
口①②⑦ |-④⑤-|
③口⑥口 |⑥-⑦-|
口④⑤口 |----|
48
口①①口 |①-②③|
②③⑩⑨ |-④⑤-|
⑦⑧⑤④ |⑥-⑦⑧|
口⑥⑥口 |-⑨⑩-|
49
口①①口 |①-②③|
②③口口 |-④⑤-|
口口⑤④
口口口口

口口口口
⑥口口口
口口口口 |----|
口口口口 |--⑥-|
50
口口口口 |①-②-|
⑧①②③ |③-④-|
⑦⑥⑤④ |⑤-⑥-|
口口口口 |⑦-⑧-|
51
③①①③ |①--②|
口口口口 |--③-|
口口口口
口②②口

口⑤⑤口
口口口口
口口口口 |④--⑤|
④⑥⑥④ |--⑥-|
52
②③口⑤ |①---|
①口口① |--②-|
口口口口 |③--④|
口口口④ |--⑤-|
53
口口⑤口 |①-②-|
口⑦⑦④ |③-④-|
口②③口 |⑤---|
①⑥⑥口 |⑥-⑦-|
54
①口口① |①---|
③口口口 |--②-|
②口口② |----|
口口口口 |--③-|
55
口口口口 |①-②-|
口①②③ |③-④-|
④⑤⑥⑦ |⑤-⑥-|
口口口⑧ |⑦-⑧-|
56
口①①口 |①---|
口②②口 |②---|
口③③口 |③---|
口④④口 |④---|
57
⑤口口口 |①-②-|
口③⑥② |③-④-|
①口⑧口 |⑤-⑥-|
口⑦口④ |⑦-⑧-|
58
口⑤口② |①-②-|
口③⑧口 |③-④-|
①⑦口④ |⑤-⑥-|
口口⑥口 |⑦-⑧-|
59
口⑤口口 |①-②-|
①⑥⑥④ |③-④-|
口⑥⑥口 |⑤---|
③口口② |⑥---|
60
①口口① |①---|
口口口口 |----|
①口口① |----|
口口口口 |----|
61
口口口口 |①---|
①口口① |----|
口口口口 |----|
①口口① |----|
62
①口口① |①---|
口口口口 |----|
①口口① |----|
口口口口 |----|
63
口口口口 |①---|
①②②① |----|
口②②口 |--②-|
①口口① |----|

不確定度: 0

最終更新:2016年04月11日 22:26