エクストラ・マジック・アワー
AKINO with bless4

BASIC

Level: 3
BPM: 180
Notes: 171

1
口口口口 |----|
口口口口 |----|
口口口口 |----|
口口口口 |----|
2
口口口口 |①---|
口口①口 |----|
口口口口 |----|
口口口口 |----|
3
口口口口 |----|
口口口口 |----|
口口口口 |----|
口口口口 |----|
4
口口口口 |①---|
口①口口 |----|
口口口口 |----|
口口口口 |----|
5
口口口口 |----|
口口口口 |----|
口口口口 |----|
口口口口 |----|
6
口口口口 |----|
口口口口 |----|
口口口口 |----|
口口口口 |----|
7
③口口③ |①---|
口口口口 |----|
口②②口 |②---|
口①①口 |--③-|
8
口口口口 |----|
①口口① |①---|
口口口口 |----|
口口口口 |----|
9
口口口口 |----|
口口口口 |----|
口口口口 |----|
口口口口 |----|
10
口口口口 |①---|
口口口口 |②---|
口口口口 |③---|
①②③口 |----|
11
口口口口 |①---|
口口口口 |②---|
口③②① |③---|
口口口口 |----|
12
口口口口 |①---|
①②③口 |②---|
口口口口 |③---|
口口口口 |----|
13
口③②① |①---|
口口口口 |②---|
口口口口 |③---|
口口口口 |----|
14
口口口口 |①---|
①②③口 |②---|
口口口口 |③---|
口口口口 |----|
15
口口口口 |①---|
口口口口 |②---|
口③②① |③---|
口口口口 |----|
16
口口口口 |①---|
③口口③ |--②-|
②口口② |----|
①口口① |③---|
17
口口口口 |①---|
口①①口 |----|
口①①口 |----|
口口口口 |----|
18
口口口口 |①---|
①口口口 |----|
口口口口 |----|
口口口口 |----|
19
口口口口 |①---|
口①口口 |----|
口口口口 |----|
口口口口 |----|
20
口口口口 |①---|
口口①口 |----|
口口口口 |----|
口口口口 |----|
21
口口口口 |①---|
口口口① |----|
口口口口 |----|
口口口口 |----|
22
口口口口 |①---|
口口口口 |----|
口口口① |----|
口口口口 |----|
23
口口口口 |①---|
口口口口 |----|
口口①口 |----|
口口口口 |----|
24
口口口口 |①---|
口口口口 |----|
口①口口 |----|
口口口口 |----|
25
口口口口 |①---|
口口口口 |----|
①口口口 |----|
口口口口 |----|
26
口口口口 |①---|
①②口口 |----|
口口口口 |②---|
口口口口 |----|
27
口口口口 |①---|
口口①② |----|
口口口口 |②---|
口口口口 |----|
28
口口口口 |①---|
口口口口 |----|
口口②① |②---|
口口口口 |----|
29
口口口口 |①---|
口口口口 |----|
②①口口 |②---|
口口口口 |----|
30
口口口口 |①---|
口口口口 |----|
口口②口 |②---|
口口①口 |----|
31
口口②口 |①---|
口口①口 |----|
口口口口 |②---|
口口口口 |----|
32
口口口口 |①---|
口口口口 |----|
口②口口 |②---|
口①口口 |----|
33
口②口口 |①---|
口①口口 |----|
口口口口 |②---|
口口口口 |----|
34
口口口口 |①---|
口①①口 |----|
口①①口 |----|
口口口口 |----|
35
口口口口 |①---|
口口口口 |----|
口口②① |②---|
口口口口 |----|
36
口口口口 |①---|
口口口口 |----|
②①口口 |②---|
口口口口 |----|
37
口口口口 |①---|
口口口口 |----|
口口口口 |----|
口①①口 |----|
38
口口口口 |①---|
①②③④ |②---|
口口口口 |③---|
口口口口 |④---|
39
口口口口 |①---|
口口口口 |②---|
④③②① |③---|
口口口口 |④---|
40
口口口口 |①---|
口③③口 |--②-|
口②②口 |----|
口①①口 |③---|
41
①口口① |①---|
口口口口 |----|
口口口口 |----|
口口口口 |----|
42
②口口② |①---|
①口③① |②---|
口口④口 |③---|
口口口口 |④---|
43
口口口口 |①---|
③①口口 |②---|
④②口口 |③---|
口口口口 |④---|
44
口口口口 |①---|
口口口口 |----|
口②②口 |②---|
口①①口 |----|
45
口②②口 |①---|
口①①口 |----|
口口口口 |②---|
口口口口 |----|
46
口口口口 |①---|
①③口口 |②---|
②④口口 |③---|
口口口口 |④---|
47
口口口口 |①---|
口口①③ |②---|
口口②④ |③---|
口口口口 |④---|
48
口口口口 |①---|
口口口口 |----|
口②②口 |②---|
口①①口 |----|
49
口②②口 |①---|
口①①口 |----|
口口口口 |②---|
口口口口 |----|
50
②口口② |①---|
①口③① |②---|
口口④口 |③---|
口口口口 |④---|
51
口口口口 |①---|
③①口口 |②---|
④②口口 |③---|
口口口口 |④---|
52
口口口口 |①---|
口口口口 |----|
口②②口 |②---|
口①①口 |----|
53
口②②口 |①---|
口①①口 |----|
口口口口 |②---|
口口口口 |----|
54
①口口① |①---|
口口②口 |----|
口口口口 |②---|
口口口口 |----|
55
口口口口 |①---|
口口口口 |----|
口①口口 |②---|
口口②口 |----|
56
口口口口 |①---|
口口口口 |②---|
④③②① |③---|
口口口口 |④---|
57
口口口口 |①---|
①②③④ |②---|
口口口口 |③---|
口口口口 |④---|
58
口①①口 |①---|
口口口口 |----|
口口口口 |----|
口口口口 |----|
59
口口口口 |①---|
口①①口 |----|
口口口口 |----|
口口口口 |----|
60
口口口口 |①---|
②口口② |----|
口①①口 |----|
口口口口 |②---|
61
①口口① |--①-|
口口口口 |----|
口口口口 |----|
口口口口 |----|
62
口口口口 |----|
口口口口 |----|
口口口口 |----|
口口口口 |----|
63
口口口口 |①---|
口口口口 |----|
口口口口 |②---|
口②①口 |----|
64
口口口口 |①---|
口口口口 |----|
口②①口 |②---|
口口口口 |----|
65
①口口① |①---|
②口口② |--②-|
口口口口 |----|
口口口口 |----|

不確定度: 0

最終更新:2016年04月11日 22:33