ツーマンライブ
東雲夏陽 meets 日向美ビタースイーツ♪

BASIC

Level: 3
BPM: 174
Notes: 208

1
口口口口 |----|
口口口口 |----|
口口口口 |----|
口口口口 |----|
2
口口口口 |----|
口①②口 |----|
口口口口 |①---|
口口口口 |②---|
3
口口口口 |----|
口口口口 |①---|
口口口口 |②---|
①②③口 |③---|
4
口口口口 |①---|
口③②口 |----|
口口口口 |②---|
口口口① |③---|
5
口口口口 |----|
口口口口 |①---|
口口口口 |②---|
口③②① |③---|
6
口口口口 |①---|
口口口口 |----|
口口②② |②---|
①口口口 |----|
7
口口口口 |①---|
口口①① |----|
②②口口 |②---|
口口口口 |----|
8
口②②口 |①---|
①①口口 |----|
口口口口 |②---|
口口口口 |----|
9
口口口口 |①---|
①口口① |----|
口口口口 |----|
口口口口 |----|
10
口口口口 |①---|
口①②口 |②---|
口③④口 |③---|
口口口口 |④---|
11
口口口口 |----|
口口口口 |----|
①口口口 |①---|
口口口口 |----|
12
②口口口 |①---|
①口口口 |----|
口口口口 |②---|
口口口口 |----|
13
口①口口 |①---|
口②口口 |----|
口口口口 |②---|
口口口口 |----|
14
口口口口 |①---|
口口口口 |----|
口①口口 |②---|
口②口口 |----|
15
口口口口 |①---|
口口口口 |----|
口口②口 |②---|
口口①口 |----|
16
口口②口 |①---|
口口①口 |----|
口口口口 |②---|
口口口口 |----|
17
口口口① |①---|
口口口② |----|
口口口口 |②---|
口口口口 |----|
18
口口口口 |①---|
口口口口 |----|
口口口① |②---|
口口口② |----|
19
口口口口 |①---|
口口口口 |----|
口口口口 |②---|
①②口口 |----|
20
口口口口 |①---|
口口口口 |----|
口口口口 |②---|
口口①② |----|
21
口口口口 |①---|
口口口口 |----|
口口②① |②---|
口口口口 |----|
22
口口口口 |①---|
口口口口 |----|
②①口口 |②---|
口口口口 |----|
23
口口口口 |①---|
①②口口 |----|
口口口口 |②---|
口口口口 |----|
24
口口口口 |①---|
口口①② |----|
口口口口 |②---|
口口口口 |----|
25
口口②① |①---|
口口口口 |----|
口口口口 |②---|
口口口口 |----|
26
②①口口 |①---|
口口口口 |----|
口口口口 |②---|
口口口口 |----|
27
口口口口 |①---|
口②①口 |②---|
口口口口 |----|
口口口口 |----|
28
口口口口 |①---|
口口口口 |②---|
口②①口 |----|
口口口口 |----|
29
口口口口 |①---|
口口口口 |②---|
口口口口 |----|
②口口① |----|
30
口口口口 |①---|
口口口口 |----|
口口①口 |----|
口口口口 |----|
31
口口口① |①---|
口口口口 |----|
口口口口 |----|
口口口口 |----|
32
口口口口 |①---|
口口口① |----|
口口口口 |----|
口口口口 |----|
33
口口口口 |①---|
口②①口 |②---|
口④③口 |③---|
口口口口 |④---|
34
口口口口 |①---|
口口口口 |②---|
口口口口 |③---|
④②①③ |④---|
35
口口口口 |①---|
口①②口 |②---|
口口口口 |----|
口口口口 |----|
36
口口口口 |①---|
口口口口 |②---|
口①②口 |----|
口口口口 |----|
37
口口口口 |①---|
口口口口 |②---|
口口口口 |----|
①口口② |----|
38
口口口口 |①---|
口口口口 |----|
口①口口 |----|
口口口口 |----|
39
①口口口 |①---|
口口口口 |----|
口口口口 |----|
口口口口 |----|
40
口口口口 |①---|
①口口口 |----|
口口口口 |----|
口口口口 |----|
41
口口口口 |①---|
口口口口 |----|
口口①口 |----|
口口口口 |----|
42
口口口口 |----|
口口口口 |----|
口口口口 |----|
口口口口 |----|
43
口口口口 |----|
口口口口 |----|
口口口口 |----|
口口①口 |①---|
44
口口口口 |①---|
口口④口 |②---|
口③②口 |③---|
口①口口 |④---|
45
口口口② |①---|
口①口口 |----|
口口口口 |----|
口口口口 |②---|
46
口口口口 |①---|
①口口② |②---|
③口口④ |③---|
口口口口 |④---|
47
口①口口 |----|
口口口口 |----|
口口口口 |----|
口口口口 |①---|
48
口口口口 |①---|
口②①口 |②---|
口④③口 |③---|
口口口口 |④---|
49
口口口口 |①---|
口口②口 |----|
口口口口 |②---|
口口①口 |----|
50
口口口口 |①---|
口②口口 |----|
口口口口 |②---|
口①口口 |----|
51
口口口④ |①---|
口口口③ |②---|
口口口② |③---|
口口口① |④---|
52
口④口口 |①---|
口③口口 |②---|
口②口口 |③---|
口①口口 |④---|
53
口口④口 |①---|
口口③口 |②---|
口口②口 |③---|
口口①口 |④---|
54
④口口口 |①---|
③口口口 |②---|
②口口口 |③---|
①口口口 |④---|
55
口口①① |①---|
口口口口 |----|
口②②口 |②---|
口口口口 |----|
56
①①口口 |①---|
口②②口 |----|
口口口口 |②---|
口口口口 |----|
57
①口口① |①---|
口口口口 |----|
口口口口 |----|
口口口口 |----|
58
口口口口 |----|
②口口② |----|
口口口口 |①---|
口①①口 |--②-|
59
口①口口 |----|
口口②口 |①---|
口③口口 |②---|
口口口口 |③---|
60
口口口口 |①---|
口③③口 |----|
口口口口 |②---|
②口①② |--③-|
61
①口口口 |----|
口口口② |①---|
③口口口 |②---|
口口口口 |③---|
62
口口口口 |①---|
口口口口 |----|
口口口口 |②---|
②③口① |③---|
63
口口口口 |①---|
口口口口 |----|
口口③② |②---|
口口①口 |③---|
64
口口口口 |①---|
口口③口 |②---|
②①口口 |③---|
口口口口 |----|
65
①①口口 |①---|
②②口口 |----|
口口口口 |②---|
口口口口 |----|
66
口口口口 |①---|
③口口③ |----|
①①口口 |②---|
口②②口 |--③-|
67
口①口口 |----|
口口②口 |①---|
口③口口 |②---|
口口口口 |③---|
68
口口口口 |①---|
口③③口 |----|
口口口口 |②---|
②口①② |--③-|
69
①口口口 |----|
口口口② |①---|
③口口口 |②---|
口口口口 |③---|
70
口口口口 |①---|
口口口口 |----|
口口口口 |②---|
②③口① |③---|
71
口口口口 |①---|
口口口口 |----|
口口③② |②---|
口口①口 |③---|
72
口口口口 |①---|
口④③口 |②---|
②①口口 |③---|
口口口口 |④---|
73
口口口口 |----|
口口口口 |----|
口口口口 |----|
口口口口 |----|
74
口口口口 |----|
②口口① |①---|
口口口③ |②---|
口口口口 |③---|
75
口口口口 |①---|
口口口口 |----|
①口口口 |②---|
口口②口 |----|
76
口口口口 |①---|
口口口口 |----|
口口口口 |②---|
②①口口 |----|
77
口口口口 |①---|
口口口口 |----|
①②口口 |②---|
口口口口 |----|
78
口口口口 |①---|
口口口口 |----|
口口①② |②---|
口口口口 |----|
79
口口口口 |①---|
口口②① |----|
口口口口 |②---|
口口口口 |----|
80
口口口口 |①---|
②①口口 |----|
口口口口 |②---|
口口口口 |----|
81
①②口口 |①---|
口口口口 |----|
口口口口 |②---|
口口口口 |----|
82
口口①② |①---|
口口口口 |----|
口口口口 |②---|
口口口口 |----|
83
口口口口 |①---|
口口口口 |----|
口①①口 |----|
口口口口 |----|

不確定度: 0

最終更新:2015年12月18日 16:16