MAGICAL SUMMER SMILE
wac feat. VENUS

BASIC

Level: 2
BPM: 195
Notes: 163

1
口口口口 |----|
口口口口 |----|
口口口口 |----|
口口口口 |----|
2
①②口口 |①---|
口口口口 |----|
口口口口 |②---|
口口口口 |----|
3
口口①口 |①---|
口口口口 |----|
口口口口 |----|
口口口口 |----|
4
口口口口 |①---|
口口②① |----|
口口口口 |②---|
口口口口 |----|
5
口口口口 |①---|
口①口口 |----|
口口口口 |----|
口口口口 |----|
6
口①②口 |①---|
口口口口 |----|
口口口口 |②---|
口口口口 |----|
7
口口口口 |①---|
口①②口 |----|
口口口口 |②---|
口口口口 |----|
8
口口口口 |①---|
口口口口 |----|
口①口口 |----|
口口口口 |----|
9
口口口口 |①---|
口①口口 |----|
口口口口 |----|
口口口口 |----|
10
①②口口 |①---|
口口口口 |----|
口口口口 |②---|
口口口口 |----|
11
口口①口 |①---|
口口口口 |----|
口口口口 |----|
口口口口 |----|
12
口口口口 |①---|
口口②① |----|
口口口口 |②---|
口口口口 |----|
13
口口口口 |①---|
口①口口 |----|
口口口口 |----|
口口口口 |----|
14
口①①口 |①---|
口②②口 |----|
口口口口 |②---|
口口口口 |----|
15
口口口口 |①---|
口口口口 |----|
口①①口 |----|
口口口口 |----|
16
口口口口 |①---|
口口口口 |----|
口①②口 |②---|
口口口口 |----|
17
口口口口 |①---|
口①②口 |----|
口口口口 |②---|
口口口口 |----|
18
口①口口 |①---|
口口口口 |----|
口口口口 |----|
口口口口 |----|
19
口口口口 |----|
口口口口 |----|
口口口口 |----|
口口口口 |----|
20
口口①① |①---|
口口口口 |----|
口口口口 |----|
口口口口 |----|
21
口口口口 |----|
口口口口 |----|
口口口口 |----|
口口口口 |----|
22
口口口口 |①---|
口①口口 |----|
口口口口 |----|
口口口口 |----|
23
口口口口 |①---|
口口①口 |----|
口口口口 |----|
口口口口 |----|
24
口口口口 |①---|
口口口口 |----|
口①口口 |----|
口口口口 |----|
25
口口口口 |①---|
口口②口 |----|
口口①口 |②---|
口口口口 |----|
26
口口①① |①---|
口口口口 |----|
口口口口 |----|
口口口口 |----|
27
①①口口 |①---|
口口口口 |----|
口口口口 |----|
口口口口 |----|
28
口口口口 |①---|
①②口口 |----|
口口口口 |②---|
口口口口 |----|
29
口口口口 |①---|
口口①② |----|
口口口口 |②---|
口口口口 |----|
30
口口①① |①---|
口口口口 |----|
口口口口 |----|
口口口口 |----|
31
①①口口 |①---|
口口口口 |----|
口口口口 |----|
口口口口 |----|
32
口口口口 |①---|
①②口口 |----|
口口口口 |②---|
口口口口 |----|
33
口口口口 |①---|
口口①② |----|
口口口口 |②---|
口口口口 |----|
34
口口①① |①---|
口口口口 |----|
口口口口 |----|
口口口口 |----|
35
口①口口 |①---|
口②口口 |----|
口口口口 |②---|
口口口口 |----|
36
口口口口 |①---|
口口①① |----|
口口口口 |----|
口口口口 |----|
37
口口口口 |①---|
口①口口 |----|
口②口口 |②---|
口口口口 |----|
38
口口口口 |①---|
口口口口 |----|
口口口口 |----|
口口①① |----|
39
口口口口 |①---|
口口口口 |----|
口②口口 |②---|
口①口口 |----|
40
口口口口 |①---|
口口口口 |----|
口口①① |----|
口口口口 |----|
41
口口口口 |①---|
口②口口 |----|
口①口口 |②---|
口口口口 |----|
42
口口①口 |①---|
口口②口 |----|
口口口口 |②---|
口口口口 |----|
43
口口口口 |①---|
口口口口 |----|
口口①口 |----|
口口口口 |----|
44
口①口口 |①---|
口②口口 |----|
口口口口 |②---|
口口口口 |----|
45
口口口口 |①---|
口口口口 |----|
口①口口 |----|
口口口口 |----|
46
口口口① |①---|
口口口② |----|
口口口口 |②---|
口口口口 |----|
47
口口口口 |①---|
口口口口 |----|
口口口① |----|
口口口口 |----|
48
①口口口 |①---|
②口口口 |----|
口口口口 |②---|
口口口口 |----|
49
口口口口 |①---|
口口口口 |----|
①口口口 |----|
口口口口 |----|
50
口口口口 |①---|
口口口口 |----|
口①①口 |----|
口口口口 |----|
51
口口口口 |①---|
①口口口 |----|
口口口口 |----|
口口口口 |----|
52
口口口口 |①---|
口口口口 |----|
口①①口 |----|
口口口口 |----|
53
口口口口 |①---|
口口口① |----|
口口口口 |----|
口口口口 |----|
54
口口口口 |①---|
口口口口 |----|
口①①口 |----|
口口口口 |----|
55
口口口口 |①---|
①口口口 |----|
口口口口 |----|
口口口口 |----|
56
口口口口 |①---|
口口口口 |----|
口①①口 |----|
口口口口 |----|
57
口口口口 |①---|
①口口① |----|
口口口口 |----|
口口口口 |----|
58
口口口口 |①---|
口①①口 |----|
口口口口 |----|
口口口口 |----|
59
①口口口 |①---|
口口口口 |----|
口口口口 |----|
口口口口 |----|
60
口口口口 |①---|
口①①口 |----|
口口口口 |----|
口口口口 |----|
61
口口口① |①---|
口口口口 |----|
口口口口 |----|
口口口口 |----|
62
口②①口 |①---|
口口口口 |----|
口口口口 |②---|
口口口口 |----|
63
口口口口 |①---|
口②①口 |----|
口口口口 |②---|
口口口口 |----|
64
口口口口 |①---|
口口口口 |----|
口①①口 |----|
口口口口 |----|
65
口口口口 |①---|
①口口① |----|
口口口口 |----|
口口口口 |----|
66
口口口口 |①---|
口①①口 |----|
口口口口 |----|
口口口口 |----|
67
①口口① |①---|
口口口口 |----|
口口口口 |----|
口口口口 |----|
68
口口②① |①---|
口口口口 |----|
口口口口 |②---|
口口口口 |----|
69
②①口口 |①---|
口口口口 |----|
口口口口 |②---|
口口口口 |----|
70
口口口口 |①---|
①②口口 |----|
口口口口 |②---|
口口口口 |----|
71
口口口口 |①---|
口口①② |----|
口口口口 |②---|
口口口口 |----|
72
口口①口 |①---|
口口②口 |----|
口口口口 |②---|
口口口口 |----|
73
口口口口 |①---|
口①口口 |----|
口②口口 |②---|
口口口口 |----|
74
口口口口 |①---|
口口口口 |----|
口口①口 |----|
口口口口 |----|
75
口口口口 |①---|
口口口口 |----|
口口口口 |----|
口①①口 |----|
76
口口口口 |①---|
口口口口 |----|
口口口口 |②---|
口口②① |----|
77
口口口口 |①---|
口口口口 |----|
口口口口 |②---|
②①口口 |----|
78
口口口口 |①---|
口口口口 |----|
①②口口 |②---|
口口口口 |----|
79
口口口口 |①---|
口口口口 |----|
口口①② |②---|
口口口口 |----|
80
口口口口 |①---|
口口口口 |----|
口②②口 |②---|
口①①口 |----|
81
口口口口 |①---|
口①①口 |----|
口口口口 |----|
口口口口 |----|
82
口①②口 |①---|
口口口口 |----|
口口口口 |②---|
口口口口 |----|
83
口口口口 |①---|
口①②口 |----|
口口口口 |②---|
口口口口 |----|
84
口口口口 |①---|
口口口① |----|
口口口口 |----|
口口口口 |----|
85
口口口① |①---|
口口口口 |----|
口口口口 |----|
口口口口 |----|
86
口①②口 |①---|
口口口口 |----|
口口口口 |②---|
口口口口 |----|
87
口口口口 |①---|
口①②口 |----|
口口口口 |②---|
口口口口 |----|
88
口口口口 |①---|
①口口① |----|
口口口口 |----|
口口口口 |----|
89
口口口口 |----|
口口口口 |----|
口口口口 |----|
口口口口 |----|
90
口口口口 |①---|
口口①口 |----|
口口口口 |----|
口口口口 |----|
91
口口口口 |①---|
口①口口 |----|
口口口口 |----|
口口口口 |----|
92
口口①① |①---|
口口口口 |----|
口口口口 |----|
口口口口 |----|
93
①①口口 |①---|
口口口口 |----|
口口口口 |----|
口口口口 |----|
94
口口口口 |①---|
口口①口 |----|
口口口口 |----|
口口口口 |----|
95
口②口口 |①---|
口①口口 |----|
口口口口 |②---|
口口口口 |----|
96
口口①① |①---|
口口口口 |----|
口口口口 |----|
口口口口 |----|

不確定度: 0

最終更新:2016年04月18日 01:46