MAGICAL SUMMER SMILE
wac feat. VENUS

ADVANCED

Level: 7
BPM: 195
Notes: 481

1
口口口口 |----|
③口口口 |----|
口口②口 |--①-|
①口口口 |②-③-|
2
口口口① |①---|
口④⑤口 |--②-|
口②口③ |③---|
口口口口 |④-⑤-|
3
口口①口 |--①-|
口口口④ |----|
口③口口 |--②-|
口口口② |③-④-|
4
口①②口 |①---|
口口③口 |--②-|
口口④口 |--③-|
口口口口 |--④-|
5
①口口口 |----|
口口②口 |①---|
口③口口 |②-③-|
口口口口 |----|
6
口口口口 |①---|
口口口口 |----|
口口②② |②---|
口口①① |----|
7
②②口口 |①---|
①①口口 |----|
口口口口 |②---|
口口口口 |----|
8
口口口① |①---|
口②口口 |----|
口口③口 |--②-|
口④口口 |③-④-|
9
③口③② |--①-|
口口口① |--②-|
口口口口 |----|
口口口口 |③---|
10
口口口口 |----|
口口②口 |①---|
口口口口 |②---|
③①口口 |--③-|
11
④口口③ |①-②-|
④②口口 |--③-|
口口①口 |----|
口口口口 |④---|
12
口②口① |----|
口③口① |①---|
口口口口 |--②-|
口口口口 |--③-|
13
口口口口 |----|
口口口① |①---|
口口②口 |②-③-|
口口③口 |----|
14
①口①② |①---|
口口口口 |----|
口口口口 |②---|
②③口③ |--③-|
15
口口口口 |----|
口口口口 |----|
口口口② |----|
①口口口 |①-②-|
16
①⑤口口 |①---|
口口口④ |②-③-|
口③口口 |--④-|
口口②口 |--⑤-|
17
④口口① |--①-|
口⑤②口 |②-③-|
口③⑥口 |--④-|
口口口口 |⑤-⑥-|
18
①②③口 |----|
口口口口 |----|
口口口口 |--①-|
口口口口 |②-③-|
19
口口口口 |----|
口口口口 |----|
口③②① |--①-|
口口口口 |②-③-|
20
口口口口 |----|
口口口口 |----|
口口口口 |----|
口口口口 |----|
21
③口口③ |----|
口口口口 |①---|
口②②口 |②-③-|
口①①口 |----|
22
口口③口 |①-②-|
①口口② |--③-|
⑤口④口 |--④-|
口口口口 |--⑤-|
23
④口口口 |--①-|
口口口② |--②-|
口①口③ |--③-|
口口口④ |--④-|
24
口口口口 |----|
口①①口 |----|
口①①口 |----|
口口口口 |①---|
25
③③口口 |①---|
口口口口 |②---|
口口口② |③---|
①口口口 |----|
26
②口口① |①---|
口②①口 |--②-|
口①②口 |----|
①口口② |----|
27
②口口① |①---|
口②①口 |--②-|
口①②口 |----|
①口口② |----|
28
口口口口 |①---|
③④⑤① |②---|
口口口② |③-④-|
口口口口 |⑤---|
29
①口口② |①-②-|
③口口④ |--③-|
口口口⑤ |--④-|
口口口口 |⑤---|
30
②口口① |①---|
口②①口 |--②-|
口①②口 |----|
①口口② |----|
31
②口口① |①---|
口②①口 |--②-|
口①②口 |----|
①口口② |----|
32
口口口口 |①---|
③④⑤① |②---|
口口口② |③-④-|
口口口口 |⑤---|
33
⑤口口⑤ |①-②-|
口口④口 |--③-|
口③口口 |--④-|
口①②口 |--⑤-|
34
口③⑥口 |----|
口②⑤口 |①-②-|
口①④口 |③-④-|
口口口口 |⑤-⑥-|
35
①口口② |①-②-|
③口口④ |③-④-|
口口口口 |----|
口口口口 |----|
36
①①口口 |----|
口口②② |①---|
③③口口 |②---|
口口口口 |③---|
37
口口口口 |①-②-|
口口口口 |③-④-|
口口口口 |----|
④③②① |----|
38
口口口口 |----|
口⑥③口 |①-②-|
口⑤②口 |③-④-|
口④①口 |⑤-⑥-|
39
口口口口 |①-②-|
④口口③ |③-④-|
②口口① |----|
口口口口 |----|
40
①口口口 |----|
口口②口 |①-②-|
③口口⑤ |③---|
口口口④ |④-⑤-|
41
口口④口 |--①-|
口②③口 |②---|
口①口口 |③-④-|
口口口口 |----|
42
⑥口口③ |----|
⑤口口② |①-②-|
④口口① |③-④-|
口口口口 |⑤-⑥-|
43
口④③口 |①-②-|
口②①口 |③-④-|
口口口口 |----|
口口口口 |----|
44
口口口口 |----|
口①①口 |①---|
口③③口 |②---|
②口口② |③---|
45
④口口③ |①-②-|
②口口① |③-④-|
口口口口 |----|
口口口口 |----|
46
①②③④ |----|
⑤⑥口口 |①-②-|
口口口口 |③-④-|
口口口口 |⑤-⑥-|
47
口口口口 |--①-|
口口口口 |②-③-|
口③②① |----|
口口口④ |④---|
48
①口口口 |①---|
②口③口 |②---|
口口④口 |③-④-|
口⑤口口 |--⑤-|
49
口口口② |--①-|
③口③① |②---|
口④口④ |③---|
口口口口 |④---|
50
①口口口 |①---|
口②口口 |--②-|
口口③口 |----|
口口口口 |③---|
51
③口口④ |①-②-|
③口口④ |③-④-|
①口口② |----|
①口口② |----|
52
口口口口 |①---|
口③口口 |--②-|
口口②口 |----|
口口口① |③---|
53
④口口③ |①-②-|
④口口③ |③-④-|
②口口① |----|
②口口① |----|
54
口口口口 |①---|
口口③口 |--②-|
口②口口 |----|
①口口口 |③---|
55
③口口④ |①-②-|
③口口④ |③-④-|
①⑤⑤② |----|
①口口② |⑤---|
56
口口口口 |①---|
④①①口 |----|
口口口③ |②-③-|
②口口口 |④---|
57
口口①口 |①---|
口①口口 |--②-|
口口②口 |----|
口②口口 |----|
58
口口口口 |①---|
口口口③ |--②-|
口②口口 |----|
口口口① |③---|
59
③口口④ |①-②-|
口③④口 |③-④-|
①口口② |----|
口①②口 |----|
60
口口口口 |①---|
③口口口 |--②-|
口口②口 |----|
①口口口 |③---|
61
④口口③ |①-②-|
口④③口 |③-④-|
②⑤⑥① |----|
口②①口 |⑤-⑥-|
62
②口口口 |①---|
口③口④ |②-③-|
口口⑤① |--④-|
口口口口 |⑤---|
63
口口②② |①---|
口③③口 |--②-|
口口口口 |----|
①①口口 |③---|
64
口口口③ |①---|
②口口① |----|
口口口口 |②---|
②口口① |--③-|
65
口②①口 |--①-|
口③口口 |--②-|
口口口口 |③---|
口口口口 |----|
66
口口口口 |①---|
②口口① |----|
口③③口 |②---|
②口口① |--③-|
67
①口口① |----|
④口口口 |①---|
口口③口 |--②-|
②口口口 |③-④-|
68
④口①口 |①---|
⑤口口② |--②-|
口口口③ |③---|
口口口口 |④-⑤-|
69
口口口口 |--①-|
口口①口 |----|
②③④口 |--②-|
口口①口 |③-④-|
70
③③口口 |①---|
④④口② |②-③-|
⑤⑤口① |--④-|
口口口口 |--⑤-|
71
口口③③ |----|
口口口② |①---|
口口口口 |②-③-|
口口口① |----|
72
①②口口 |①---|
②口口口 |----|
口口口口 |②---|
口口口口 |----|
73
口口口口 |①---|
口口①口 |----|
①①口② |②---|
②②②口 |----|
74
口④③② |①---|
口①①口 |----|
口①①口 |--②-|
口口口口 |③-④-|
75
③④⑤口 |--①-|
口口口口 |--②-|
②②①① |--③-|
口口口口 |④-⑤-|
76
口口口口 |----|
口①①口 |①---|
②口口② |②---|
口③口口 |--③-|
77
④口口③ |①-②-|
⑤②口口 |--③-|
口口①口 |----|
口口口口 |④-⑤-|
78
口口口口 |----|
口口④④ |①-②-|
③③口② |--③-|
口口口① |--④-|
79
口①①口 |----|
口口口口 |①---|
口②②口 |②-③-|
口③③口 |----|
80
④口口① |①---|
口口②口 |----|
口口③口 |②-③-|
①口口④ |--④-|
81
口口口口 |----|
口口口口 |----|
口口口② |----|
①口口口 |①-②-|
82
①⑤口口 |①---|
口口口④ |②-③-|
口③口口 |--④-|
口口②口 |--⑤-|
83
④口口① |--①-|
口⑤②口 |②-③-|
口③⑥口 |--④-|
口口口口 |⑤-⑥-|
84
口口口口 |----|
口口口口 |----|
口口口② |①---|
口①口口 |②---|
85
口口②② |①---|
①①口口 |----|
口口口④ |②---|
③口口口 |③-④-|
86
①⑤口口 |①---|
口口口④ |②-③-|
口③口口 |--④-|
口口②口 |--⑤-|
87
④口口① |--①-|
口⑤②口 |②-③-|
口③⑥口 |--④-|
口口口口 |⑤-⑥-|
88
口口口口 |----|
口口口口 |----|
口①②口 |----|
口口口口 |①-②-|
89
①口口口 |----|
口口口口 |----|
口③②口 |--①-|
口口口口 |②-③-|
90
口口口① |①---|
口②②口 |--②-|
③④口口 |----|
口口口口 |③-④-|
91
口④⑤口 |①-②-|
③口口口 |--③-|
口口①② |--④-|
口口口口 |⑤---|
92
②口口① |①---|
口②①口 |--②-|
口①②口 |----|
①口口② |----|
93
②口口① |①---|
口②①口 |--②-|
口①②口 |----|
①口口② |----|
94
口口②② |①---|
③④口口 |--②-|
口口口口 |----|
①①口口 |③-④-|
95
口口④口 |①-②-|
口口①② |--③-|
口③口口 |--④-|
口口口口 |----|
96
①口口口 |①---|
口①口口 |----|
口口①口 |----|
口口口① |----|

不確定度: 0

最終更新:2016年04月18日 01:45