惑星☆ロリポップ
SOUND HOLIC feat. Nana Takahashi

BASIC

Level: 5
BPM: 180
Notes: 402

1
口口口口 |----|
口口口口 |----|
口口口口 |----|
口口口口 |----|
2
口口口口 |①---|
口①口口 |②---|
②口口④ |③---|
口③口口 |--④-|
3
口口口② |--①-|
口口口① |--②-|
口口口口 |----|
口口口口 |----|
4
口②②口 |①---|
③①①④ |②---|
⑤口口⑥ |③-④-|
口口口口 |⑤-⑥-|
5
口①①口 |----|
口口口口 |--①-|
口③②口 |--②-|
口口口口 |③---|
6
口口口口 |①---|
口口①口 |②---|
④口口② |③---|
口口③口 |--④-|
7
②口口口 |--①-|
①口口口 |--②-|
口口口口 |----|
口口口口 |----|
8
⑥口口⑥ |①-②-|
②口口① |③-④-|
④口口③ |--⑤-|
口⑤⑤口 |--⑥-|
9
⑤⑤⑤⑤ |--①-|
④③②① |②-③-|
④③②① |④---|
口口口口 |⑤---|
10
口口口口 |①---|
口口③② |②---|
口口④① |③---|
口口口口 |④---|
11
②口口② |①---|
口口口口 |②---|
口口口口 |----|
口①①口 |----|
12
口口口口 |①---|
②③口口 |②---|
①④口口 |③---|
口口口口 |④---|
13
口口口④ |①---|
口口口③ |②---|
口口口② |③---|
口口口① |④---|
14
口口口口 |①---|
②③口口 |②---|
①④口口 |③---|
口口口口 |④---|
15
②口口② |①---|
口口口口 |②---|
口口口口 |----|
口①①口 |----|
16
口口口④ |①---|
口口口③ |②---|
口口口② |③---|
口口口① |④---|
17
⑥⑥⑥⑥ |①-②-|
①②③④ |③-④-|
①②③④ |--⑤-|
口⑤⑤口 |⑥---|
18
口口口口 |----|
口①②口 |①---|
口口口口 |②---|
口口口口 |----|
19
口口口口 |①---|
①口口口 |②---|
②口口口 |③---|
③口口口 |----|
20
口口口口 |----|
口①②口 |①---|
口口口口 |②---|
口口口口 |----|
21
口口口口 |①---|
③口口口 |②---|
②口口口 |③---|
①口口口 |----|
22
口①②口 |----|
口口口口 |①---|
口口口口 |②---|
口口口口 |----|
23
口口口口 |①---|
①口口口 |②---|
②口口口 |③---|
③口口口 |----|
24
口口口口 |①---|
口②①口 |②---|
口④③口 |③---|
口口口口 |④---|
25
②口口② |①---|
口口口口 |----|
口口口口 |②---|
口口①口 |----|
26
口口口口 |----|
口②①口 |①---|
口口口口 |②---|
口口口口 |----|
27
口口口口 |①---|
口口口① |②---|
口口口② |③---|
口口口③ |----|
28
口口口口 |----|
口②①口 |①---|
口口口口 |②---|
口口口口 |----|
29
口口口口 |①---|
口口口③ |②---|
口口口② |③---|
口口口① |----|
30
口①②口 |①---|
口③④口 |②---|
口口口口 |③---|
口口口口 |④---|
31
口口口口 |①---|
口口口口 |②---|
口①②口 |③---|
口③口口 |----|
32
③口口③ |①---|
口口口口 |----|
口口口口 |②---|
①②②① |--③-|
33
口口口口 |--①-|
④③②① |②-③-|
④③②① |④---|
口口口口 |----|
34
口口口① |①---|
口口口② |②---|
口口口③ |③---|
口口口口 |----|
35
①口口口 |①---|
②口口口 |②---|
③口口口 |③---|
口口口口 |----|
36
口口口口 |①---|
口口口口 |②---|
口①②口 |③---|
口③④口 |④---|
37
②口口② |①---|
①口口① |②---|
口口口口 |----|
口口口口 |----|
38
③口口③ |①---|
口①①口 |②---|
口②②口 |----|
口口口口 |③---|
39
③口口③ |①---|
口①①口 |②---|
口②②口 |----|
口口口口 |③---|
40
③口口③ |①---|
口①①口 |②---|
口②②口 |----|
口口口口 |③---|
41
口口口口 |----|
口口口口 |----|
口口口口 |①---|
口①①口 |----|
42
①①①① |①---|
口②②口 |②---|
口③③口 |③---|
口口口口 |----|
43
②②②② |①---|
口口口口 |--②-|
口③③口 |----|
①口口① |③---|
44
②②②② |①---|
口口口口 |②---|
口口口口
口①①口

口口口口
口③④口
口口口口 |③-④-|
口⑤⑤口 |--⑤-|
45
口口口口 |--①-|
口口口① |--②-|
口③③② |----|
口口口口 |③---|
46
②口口② |①---|
口③④口 |②---|
口⑤⑥口 |③-④-|
口①①口 |⑤-⑥-|
47
①①①① |----|
口口口口 |--①-|
口②③口 |--②-|
口口口口 |③---|
48
②②②② |①---|
口口口口 |②---|
口口口口
口①①口

口口口口
口④③口
口口口口 |③-④-|
口⑤⑤口 |--⑤-|
49
口口口口 |--①-|
①口口口 |--②-|
②③③口 |----|
口口口口 |③---|
50
口⑥⑥口 |①-②-|
②⑤⑤① |③-④-|
④口口③ |--⑤-|
口口口口 |--⑥-|
51
口口口口 |----|
②口口② |----|
口①①口 |①---|
口口口口 |②---|
52
②②②② |①---|
口口口口 |②---|
口口口口
口①①口

口口口口
口④③口
口口口口 |③-④-|
口⑤⑤口 |--⑤-|
53
口口口口 |--①-|
①口口口 |--②-|
②③③口 |----|
口口口口 |③---|
54
②口口② |①---|
口④③口 |②---|
口⑥⑤口 |③-④-|
口①①口 |⑤-⑥-|
55
①①①① |----|
口口口口 |--①-|
口③②口 |--②-|
口口口口 |③---|
56
②②②② |①---|
口口口口 |②---|
口口口口
口①①口

口口口口
口③④口
口口口口 |③-④-|
口⑤⑤口 |--⑤-|
57
口口口口 |--①-|
口口口① |--②-|
口③③② |----|
口口口口 |③---|
58
⑥⑥⑥⑥ |①-②-|
①口口② |③-④-|
③口口④ |--⑤-|
口⑤⑤口 |--⑥-|
59
⑤⑤⑤⑤ |--①-|
①②③④ |②-③-|
①②③④ |④---|
口口口口 |⑤---|
60
④口口口 |①---|
③口口口 |②---|
②口口口 |③---|
①口口口 |④---|
61
口①①口 |①---|
口②②口 |②---|
口③③口 |③---|
口④④口 |④---|
62
①①①① |①---|
口口口② |②---|
口口口③ |③---|
口口口口 |----|
63
①口口口 |①---|
②口口口 |②---|
③口口口 |③---|
口口口口 |----|
64
口口口口 |①---|
口②①口 |②---|
口④③口 |③---|
口口口口 |④---|
65
口④④口 |①---|
口口口口 |②---|
口口口口 |③---|
③②①③ |④---|
66
①口口口 |①---|
②口口口 |②---|
③口口口 |③---|
口口口口 |----|
67
口口口① |①---|
口口口② |②---|
口口口③ |③---|
口口口口 |----|
68
口口口口 |①---|
口①②口 |②---|
口③④口 |③---|
口口口口 |④---|
69
④④④④ |①---|
口口口口 |②---|
口口口口 |③---|
③①②③ |④---|
70
口口口口 |①---|
②③口口 |②---|
①④口口 |③---|
口口口口 |④---|
71
②口口② |①---|
口口口口 |②---|
口口口口 |----|
口①①口 |----|
72
口口口口 |①---|
口口③② |②---|
口口④① |③---|
口口口口 |④---|
73
④口口口 |①---|
③口口口 |②---|
②口口口 |③---|
①口口口 |④---|
74
口口口口 |①---|
口口③② |②---|
口口④① |③---|
口口口口 |④---|
75
②口口② |①---|
口口口口 |②---|
口口口口 |----|
口①①口 |----|
76
④口口口 |①---|
③口口口 |②---|
②口口口 |③---|
①口口口 |④---|
77
口口口④ |①---|
口口口③ |②---|
口口口② |③---|
口口口① |④---|
78
口口口口 |①---|
口①②口 |②---|
口③④口 |③---|
口口口口 |④---|
79
④④④④ |①---|
②口口② |②---|
口口口口 |③---|
①③③① |④---|

不確定度: 0

最終更新:2016年04月18日 01:39