夏色DIARY 俺のjubeat編
猫叉王子 feat.時を駆けるショッチョー

ADVANCED

Level: 8
BPM: 170
Notes: 555

1
口口口口 |----|
口口口口 |----|
口口口口 |----|
口口口口 |----|
2
⑥口口口 |①---|
②口口① |②---|
口④③口 |③-④-|
口口⑤口 |⑤-⑥-|
3
口口口口 |--①-|
口②①口 |②-③-|
口口③口 |----|
口口口口 |----|
4
口口口⑥ |①---|
①口口② |②---|
口③④口 |③-④-|
口⑤口口 |⑤-⑥-|
5
口口口口 |--①-|
口①②口 |②-③-|
口③④口 |④-⑤-|
口⑤⑥口 |⑥---|
6
口口口口 |①---|
口口口③ |--②-|
口口⑤② |③---|
①④口口 |--④⑤|
7
口④口口 |①---|
口①③口 |②---|
口口口② |③---|
口口口口 |④---|
8
④口口口 |①---|
①口口口 |--②-|
口口口口 |③---|
口③②口 |--④-|
9
口口口① |①---|
口口②口 |②---|
口③口口 |③---|
④口口口 |④---|
10
①①④④ |①-②-|
口③口口 |③-④-|
口口②口
口口口口

⑦⑦口口
口口⑥口
口⑤口口 |--⑤-|
口口口口 |⑥-⑦-|
11
口口③③ |--①-|
口②⑤口 |②-③-|
口④①口 |--④-|
⑥⑥⑥⑥ |⑤-⑥-|
12
口口口③ |----|
口口口② |①---|
口口口① |②---|
口口口口 |③---|
13
口⑤口口 |①---|
③③④④ |②---|
②口口口 |③-④-|
①口口口 |--⑤-|
14
口口口① |①-②-|
口口口口 |③-④-|
④口③口
②口口口

⑦口⑤⑦
⑥口⑥口
口口口口 |⑤-⑥-|
口口口口 |--⑦-|
15
④口口③ |--①-|
③口口② |--②-|
②口①口 |--③-|
①口④口 |--④-|
16
⑦口⑦⑤ |①-②-|
⑥口①⑥ |③-④-|
④口口③ |⑤-⑥-|
②口口口 |--⑦-|
17
⑤口④口 |--①-|
③口②口 |--②-|
②口口① |--③-|
①口口③ |④-⑤-|
18
⑦口⑦① |①-②-|
⑥口口⑤ |③-④-|
④口③⑥ |⑤-⑥-|
②口口口 |--⑦-|
19
④口③口 |--①-|
③口口② |--②-|
②口①口 |--③-|
①口口口 |--④-|
20
口口口口 |①---|
口②③口 |--②-|
口④口口 |③---|
口口①① |--④-|
21
②口①① |①-②-|
④口③③ |③-④-|
⑥口⑤⑤ |⑤-⑥-|
口⑧⑦口 |⑦-⑧-|
22
①口口口 |①-②-|
口口口口 |③-④-|
口③④口
口口口②

⑦⑤⑦口
口⑥口⑥
口口口口 |⑤-⑥-|
口口口口 |--⑦-|
23
③口口④ |--①-|
②口③口 |--②-|
口①口② |--③-|
口④①口 |--④-|
24
⑤⑦⑦口 |①-②-|
⑥①口⑥ |③-④-|
③口④口 |⑤-⑥-|
口口口② |--⑦-|
25
口口口口 |--①-|
口②口口 |--②-|
①口口②
口口①口

口口口⑤
口口③口
⑤口口口 |--③-|
③④口口 |④-⑤-|
26
①⑦⑦口 |①-②-|
⑤⑥口⑥ |③-④-|
口③④口 |⑤-⑥-|
口口口② |--⑦-|
27
②口口⑤ |--①-|
口③③口 |--②-|
④①口② |--③-|
口⑤①口 |④-⑤-|
28
②口口口 |①---|
口口口口 |--②-|
口①①口
口口口口

口③口口
口口口口
口口④口 |③---|
口口口口 |--④-|
29
口口③② |①---|
口口口口 |--②-|
口①口口 |③---|
口口口口 |----|
30
口口④④ |①---|
口①①口 |----|
口①①口 |--②-|
③③②② |③-④-|
31
④④⑦⑦ |--①-|
②口③① |②-③-|
②口③① |④-⑤-|
⑥⑥⑤⑤ |⑥-⑦-|
32
口口④④ |①---|
口①口口 |----|
口①口口 |--②-|
③③②② |③-④-|
33
④④⑦⑦ |--①-|
②口③① |②-③-|
②口③① |④-⑤-|
⑥⑥⑤⑤ |⑥-⑦-|
34
口口口口 |①-②-|
①口⑦② |③-④-|
③⑥口④ |--⑤-|
口口⑤口 |⑥-⑦-|
35
口口①口 |--①-|
⑥②口口 |②-③-|
口⑥③口 |④-⑤-|
④④⑤⑤ |⑥---|
36
④③②① |①-②-|
口③口① |③-④-|
口⑦口⑤ |⑤-⑥-|
⑧⑦⑥⑤ |⑦-⑧-|
37
口④③口 |--①-|
口②⑤口 |②-③-|
口⑥①口 |④-⑤-|
口口⑦口 |⑥-⑦-|
38
①口④③ |①-②-|
①②口③ |③-④-|
⑤口⑦口 |⑤-⑥-|
⑤⑥⑦⑧ |⑦-⑧-|
39
口③④口 |--①-|
口⑤②口 |②-③-|
口①⑥口 |④-⑤-|
口⑦口口 |⑥-⑦-|
40
口口口① |①-②-|
口口②⑦ |③-④-|
口③口⑥ |--⑤-|
④口口⑤ |⑥-⑦-|
41
①口口口 |--①-|
⑤②口⑤ |②-③-|
口口③口 |④---|
口口口④ |⑤---|
42
①②④③ |①-②-|
口口⑦口 |③-④-|
口⑥口口 |--⑤-|
口口⑤口 |⑥-⑦-|
43
⑤口①⑤ |--①-|
口②口口 |②-③-|
口口③口 |④---|
口④口口 |⑤---|
44
⑥口口口 |①-②-|
⑤口口③ |③-④-|
④口⑧② |⑤-⑥-|
①口⑦① |⑦-⑧-|
45
⑥④口⑥ |①-②-|
口③①口 |③-④-|
口②口口 |⑤---|
口⑤⑤口 |⑥---|
46
口口口⑥ |①-②-|
③口口⑤ |③-④-|
②⑧口④ |⑤-⑥-|
①⑦口口 |⑦-⑧-|
47
⑥口④⑥ |①-②-|
口①③口 |③-④-|
口口②口 |⑤---|
口⑤⑤口 |⑥---|
48
口口⑧⑦ |①-②-|
口③②① |③-④-|
④⑤⑥口 |⑤-⑥-|
口口口口 |⑦-⑧-|
49
口①口口 |①-②-|
⑤口口⑥ |③-④-|
⑤口口⑥ |⑤---|
②③④口 |⑥---|
50
②②①① |①-②-|
⑥口口⑤ |--③-|
⑥口口⑤ |④---|
④④③③ |⑤-⑥-|
51
③口口③ |--①-|
口②②口 |②---|
口①①口 |③---|
④口口④ |④---|
52
口②①⑦ |①-②-|
②口⑦① |③-④-|
④口口③ |--⑤-|
⑥④③⑤ |⑥-⑦-|
53
①口④口 |①-②-|
口①口④ |③-④-|
③口口②
口③②口

口⑤口⑤
⑥口⑥口
口⑦口⑦ |--⑤-|
口口口口 |⑥-⑦-|
54
④口⑤口 |--①-|
口⑥口③ |②-③-|
②口⑦口 |④-⑤-|
口口口① |⑥-⑦-|
55
⑤口⑥口 |①-②-|
口口⑦④ |③-④-|
③口⑧口 |⑤-⑥-|
口①口② |⑦-⑧-|
56
口口口口 |①--②|
③口口② |--③-|
口口口②
①①口口

⑤⑤⑤⑤
口④口口
口口口口 |④---|
⑥⑥口口 |⑤-⑥-|
57
⑤⑤⑤⑤ |①--②|
②口④③ |--③-|
②口口口 |④---|
口口①① |⑤---|
58
口口口口 |--①-|
口口口口 |②-③-|
②口口①
口口口③

口口口口
④口⑥口
口⑤口⑦ |④-⑤-|
口口口口 |⑥-⑦-|
59
②①①② |①---|
口④④口 |--②-|
口④④口 |③---|
③口口③ |④---|
60
⑦①②口 |①-②-|
①⑦口② |③-④-|
③口口④ |--⑤-|
⑤③④⑥ |⑥-⑦-|
61
口④口① |①-②-|
④口①口 |③-④-|
②口口③
口②③口

⑤口⑤口
口⑥口⑥
⑦口⑦口 |--⑤-|
口口口口 |⑥-⑦-|
62
口⑤口④ |--①-|
③口⑥口 |②-③-|
口⑦口② |④-⑤-|
①口口口 |⑥-⑦-|
63
⑥⑥③③ |①-②-|
口③⑥口 |③---|
③⑤②⑥ |④-⑤-|
口④①口 |⑥---|
64
口口口口 |①--②|
②口口③ |--③-|
②口口口
口口①①

⑤⑤⑤⑤
口口④口
口口口口 |④---|
口口⑥⑥ |⑤-⑥-|
65
⑤⑤⑤⑤ |①--②|
③④口② |--③-|
口口口② |④---|
①①口口 |⑤---|
66
口口口口 |①---|
口口口口 |----|
口①①口 |②---|
口②②口 |----|
67
②口①① |①-②-|
④口③③ |③-④-|
⑥口⑤⑤ |⑤-⑥-|
⑧口⑦⑦ |⑦-⑧-|
68
口①①口 |①---|
口口口口 |----|
口口口口 |----|
口口口口 |----|

不確定度: 0

最終更新:2015年12月26日 22:41