夏色DIARY 俺のjubeat編
猫叉王子 feat.時を駆けるショッチョー

EXTREME

Level: 10
BPM: 170
Notes: 720

1
口口口口 |----|
口口口口 |----|
口口口口 |----|
口口口口 |----|
2
⑥口②① |①---|
口⑤口口 |②---|
口口④口 |③-④-|
口③口口 |⑤-⑥-|
3
口口口口 |--①-|
口口①口 |②-③-|
口②口口 |----|
口口③口 |----|
4
①②口⑥ |①---|
口口⑤口 |②---|
口④口口 |③-④-|
口口③口 |⑤-⑥-|
5
口口口口 |--①-|
口①⑥口 |②-③-|
口⑤②口 |④-⑤-|
口③④口 |⑥---|
6
口口口③ |①---|
口口口② |--②-|
④⑤口口 |③---|
①口口口 |--④⑤|
7
口口口口 |①---|
口④口② |②---|
口口①口 |③---|
口口③口 |④---|
8
③口口④ |①---|
②口口口 |--②-|
口口口口 |③---|
①口口口 |--④-|
9
②口①口 |①---|
口口②③ |②---|
口③④口 |③---|
④口口口 |④---|
10
③①④口 |①-②-|
①口口④ |③-④-|
④口口①
口④①②

口⑦口口
⑦口⑤口
口⑥口⑦ |--⑤-|
口口⑦口 |⑥-⑦-|
11
②口③④ |--①-|
口⑥⑥③ |②-③-|
③⑥⑥口 |--④-|
⑤③口① |⑤-⑥-|
12
口口口口 |--①-|
①口口② |②-③-|
③口口④ |④-⑤-|
⑤⑦口⑥ |⑥-⑦-|
13
④口口口 |①-②-|
②⑥⑤③ |③-④-|
口⑤⑥口 |⑤-⑥-|
⑦⑧①口 |--⑦⑧|
14
口口③① |①-②-|
④口口口 |③-④-|
②口口口
口口①③

⑥口口⑧
口⑥⑤口
口口⑦口 |⑤-⑥-|
口口⑧口 |⑦-⑧-|
15
口⑥②口 |①-②-|
⑥⑤④口 |③-④-|
口③口④ |⑤-⑥-|
⑦①口② |--⑦-|
16
口口①③ |①-②-|
④口口口 |③-④-|
②口口口
口口③①

⑥口⑧口
口⑥⑤口
口口⑦口 |⑤-⑥-|
口口口⑧ |⑦-⑧-|
17
口口口② |①-②-|
口口④口 |③-④-|
口③口④
口①②口

⑦⑦口口
口⑤口口
口口⑥口 |⑤-⑥-|
⑧⑨口口 |⑦-⑧⑨|
18
口口③① |①-②-|
④口口口 |③-④-|
②口口口
口口①③

口口口⑧
口⑥⑤口
口口⑦⑤ |⑤-⑥-|
口口⑧口 |⑦-⑧-|
19
口口②口 |①-②-|
口口④口 |③-④-|
口③口口
口①口②

口⑥口口
⑥⑤口口
口口口口 |⑤-⑥-|
⑦⑧口口 |--⑦⑧|
20
口口口③ |①---|
口口口② |--②-|
⑤口口口 |③---|
④口①口 |--④⑤|
21
口口①④ |①-②-|
①⑤⑥③ |③-④-|
口③⑦⑤ |⑤-⑥⑦|
口口⑧② |⑧---|
22
①③口口 |①-②-|
口口口口 |③-④-|
口口口④
③①口②

⑧口口口
⑤⑥⑦⑥
⑥⑤口口 |⑤-⑥-|
口⑧口口 |⑦-⑧-|
23
口②⑦口 |①-②-|
⑥④⑤口 |③-④-|
④⑥③口 |⑤-⑥-|
②口①⑧ |⑦-⑧-|
24
①③口口 |①-②-|
口口口④ |③-④-|
口口口②
③①口口

⑧口⑦⑥
⑤⑥口口
⑥⑤口口 |⑤-⑥-|
口⑧口口 |⑦-⑧-|
25
口②口口 |①-②-|
④口口⑦ |③-④-|
口④③⑥ |--⑤-|
②口①⑤ |⑥-⑦-|
26
④③②① |①-②-|
口口口口 |③-④-|
口口口口
①④③口

口口⑧口
口⑦⑤⑥
口口⑥⑤ |⑤-⑥-|
口口口⑧ |⑦-⑧-|
27
⑥②口④ |①-②-|
口⑦⑤口 |③-④-|
①③⑧口 |⑤-⑥-|
②口④口 |⑦-⑧-|
28
口②③口 |①---|
②口口③ |--②-|
口口口口 |③---|
④⑤口① |--④⑤|
29
③口口② |①---|
口口口口 |--②-|
口③②口 |③---|
口口①口 |----|
30
⑤口口② |①---|
④⑤②口 |②---|
①④③① |--③-|
口①①③ |④-⑤-|
31
口口口口 |--①-|
口口①② |②-③-|
③口口③
②①口口

⑤⑥⑦⑧
④口⑨口
口⑨口口 |④--⑤⑥⑦|
口口口④ |⑧-⑨-|
32
口口口口 |①---|
口①口口 |----|
口口①口
口口口口

口口口④
口口④③
口②③口 |--②-|
②口口口 |③-④-|
33
口口口口 |--①-|
②①口口 |②-③-|
③口口③
口口①②

⑧⑦⑥⑤
口⑨口④
口口⑨口 |④--⑤⑥⑦|
④口口口 |⑧-⑨-|
34
口口口口 |①-②-|
②口①③ |③-④-|
③①口②
④口口④

口⑦口口
口⑤⑥口
口口⑦口 |--⑤-|
口⑥⑤口 |⑥-⑦-|
35
口口口① |--①-|
口口口② |②-③-|
口⑥口③ |④-⑤-|
④⑤⑥④ |⑥---|
36
③口②① |①-②-|
口③①② |③-④⑤|
口口④口
口⑤口口

口口口口
⑨口⑨口
⑧⑧口口 |⑥-⑦-|
⑦口⑥口 |⑧-⑨-|
37
①③口② |--①-|
口②口③ |②-③-|
口口口①
口口口口

口口④口
口口口口
口口④⑨ |④--⑤⑥⑦|
⑧⑦⑥⑤ |⑧-⑨-|
38
①②口③ |①-②-|
②①③口 |③-④⑤|
口④口口
口口⑤口

口口口口
口⑨口⑨
口口⑧⑧ |⑥-⑦-|
口⑥口⑦ |⑧-⑨-|
39
②口③① |--①-|
③口②口 |②-③-|
①口口口
口口口口

口④口口
口口口口
⑨④口口 |④--⑤⑥⑦|
⑤⑥⑦⑧ |⑧-⑨-|
40
②口口① |①②③④|
④⑥⑥③ |⑤-⑥-|
口口口⑤
口口口口

⑨口口⑨
口口口口
口口⑧口 |--⑦-|
口⑦口口 |⑧-⑨-|
41
⑤口口⑤ |--①-|
④③①② |②-③-|
①②④③ |④---|
口口口口 |⑤---|
42
⑦②①口 |①-②-|
④⑦⑥③ |③-④-|
③⑥⑤④ |--⑤-|
口①②⑤ |⑥-⑦-|
43
口①②③ |--①-|
①口⑤口 |②-③-|
②⑤口④ |④---|
③口④口 |⑤---|
44
①②③④ |①②③④|
⑤口口口 |⑤-⑥⑦|
口口⑦⑥
⑤口口口

⑪⑫⑬⑭
口口口⑩
⑨⑧口口 |⑧⑨⑩-|
口口口⑩ |⑪⑫⑬⑭|
45
口口口口 |①-②③|
①⑦⑦⑥ |④⑤⑥-|
⑤④③② |⑦---|
①⑧⑧⑥ |⑧---|
46
④③②① |①②③④|
口口口⑤ |⑤-⑥⑦|
⑥⑦口口
口口口⑤

⑬⑫⑪⑩
口口口口
口口⑧⑨ |⑧⑨--|
口口口口 |⑩⑪⑫⑬|
47
口⑦⑦口 |--①②|
①②③④ |③④⑤-|
⑤口口口 |⑥---|
口⑥⑥口 |⑦---|
48
口口口④ |①②③④|
口口⑤③ |⑤-⑥⑦|
⑦口口②
⑥口⑤①

⑨口口⑭
⑧⑩口⑬
口口口⑫ |⑧⑨⑩-|
口⑩口⑪ |⑪⑫⑬⑭|
49
⑤⑥①口 |①-②③|
④口口口 |④⑤⑥-|
③⑥①口
②口口口

口口口口
口⑦⑦口
口口⑧口 |⑦---|
口⑧口口 |⑧---|
50
③④②① |①-②-|
口⑥⑤口 |--③-|
口⑤⑥口 |④---|
③④②① |⑤-⑥-|
51
④②①④ |--①-|
口口口口 |②---|
口口口口 |③---|
③②①③ |④---|
52
口④③⑧ |①-②-|
②口⑦① |③-④-|
④⑥口③ |--⑤⑥|
⑤②①⑧ |⑦-⑧-|
53
⑤口⑧⑨ |①-②③|
口⑦口② |④-⑤-|
⑥口③① |--⑥⑦|
⑤④口⑨ |⑧-⑨-|
54
⑦⑧⑨口 |--①②|
⑩⑥⑤口 |③④⑤-|
⑥④③⑤ |⑥-⑦⑧|
口②①口 |⑨-⑩-|
55
⑦口⑥⑧ |①-②③|
⑨⑥⑤⑩ |④-⑤-|
⑪⑤①⑫ |⑥-⑦⑧|
②③④口 |⑨⑩⑪⑫|
56
④口口口 |①--②|
口口②口 |③-④-|
口③口口
④①①口

口⑥⑥⑤
口口口⑦
口口口⑦ |⑤---|
口⑥⑥⑤ |⑥-⑦-|
57
口口口④ |①--②|
①②口口 |③-④-|
①口③口
口口口④

⑤⑥⑥口
⑦口口口
口口口⑦ |⑤---|
⑤⑥⑥口 |⑥-⑦-|
58
④⑨⑨③ |①-②-|
⑥⑦⑧① |③-④-|
①⑤⑤口 |⑤-⑥⑦|
⑤口口② |⑧-⑨-|
59
⑥口口⑥ |①---|
⑤④④① |②-③-|
③口②② |④-⑤-|
口口口① |⑥---|
60
口③④口 |①-②-|
口口口② |③-④-|
③①口④
①口②口

⑧口口口
口⑦口口
口口⑥口 |--⑤⑥|
⑧口口⑤ |⑦-⑧-|
61
⑨⑧口⑤ |①-②③|
②口⑦口 |④-⑤-|
①③口⑥ |--⑥⑦|
⑨口④⑤ |⑧-⑨-|
62
口⑨⑧⑦ |--①②|
口⑤⑥口 |③④⑤-|
⑤③④⑥ |⑥-⑦⑧|
口①②⑩ |⑨-⑩-|
63
口口口⑥ |①②③④|
口④口① |⑤-⑥-|
口②⑤口
口口③口

⑦⑦⑧口
口口口⑪
口口口⑩ |⑦-⑧⑨|
⑨口口口 |⑩-⑪-|
64
口口口④ |①--②|
口②口口 |③-④-|
口口③口
口①①④

⑤⑥⑥口
⑦口口口
⑦口口口 |⑤---|
⑤⑥⑥口 |⑥-⑦-|
65
④⑥⑥⑤ |①--②|
口口②① |③-④-|
口③口① |⑤---|
④⑥⑥⑤ |⑥---|
66
②口口⑤ |①--②|
③④④⑥ |--③-|
①口口① |④--⑤|
口口口口 |--⑥-|
67
口①③口 |①-②-|
⑦口口⑧ |③-④-|
口①③口 |⑤-⑥-|
⑤②④⑥ |⑦-⑧-|
68
口①口① |①---|
口口①口 |----|
口①口① |----|
口口口口 |----|

不確定度: 0

最終更新:2015年12月26日 22:39