MAGICAL SUMMER SMILE
wac feat. VENUS

EXTREME

Level: 9
BPM: 195
Notes: 675

1
口口口口 |----|
口口③② |----|
口①口口 |--①-|
口口口口 |②-③-|
2
①口口④ |①---|
口③口口 |--②-|
口口口② |③---|
⑤口口口 |④-⑤-|
3
口口①口 |--①-|
口口④口 |----|
口③口口 |--②-|
口口②口 |③-④-|
4
口口③① |①---|
②④口④ |②-③-|
⑤口⑤口 |--④-|
口口口口 |--⑤-|
5
②口口① |----|
口③③口 |①---|
口口口口 |②-③-|
口口口口 |----|
6
口②口口 |①---|
②口口口 |----|
口口口① |②---|
口口①口 |----|
7
口口①口 |①---|
口口口① |----|
②口口口 |②---|
口②口口 |----|
8
②口口口 |①---|
口口③① |----|
④口口① |--②-|
口口口口 |③-④-|
9
口口口① |--①-|
⑤口口② |--②-|
口口④口 |--③-|
③口口口 |④-⑤-|
10
口口口口 |----|
口口口② |①---|
③口口口 |②---|
口②口① |--③-|
11
②口口③ |①-②-|
口④①⑤ |--③-|
口口口口 |----|
口口口口 |④-⑤-|
12
口口口③ |----|
口口口口 |①-②-|
②口①④ |--③-|
口口口口 |--④-|
13
①口口② |----|
口③③口 |①---|
口口口口 |②-③-|
口口口口 |----|
14
口口口口 |①---|
①③②④ |----|
口④①口 |②-③-|
①口口④ |--④-|
15
口口口口 |----|
口口口口 |----|
②口口口 |----|
①口口口 |①-②-|
16
②口①口 |①---|
口④口① |②-③-|
口口⑤③ |--④-|
口口③口 |--⑤-|
17
①②③口 |--①-|
②口口⑥ |②-③-|
③口口⑤ |--④-|
口⑥⑤④ |⑤-⑥-|
18
口①②③ |----|
口口口口 |----|
口口口口 |--①-|
口口口口 |②-③-|
19
口口口口 |----|
口口口口 |----|
③②①口 |--①-|
口口口口 |②-③-|
20
口口口口 |----|
口口口口 |----|
口口口口 |----|
口口口口 |----|
21
口口口口 |①---|
③③③⑥ |②---|
②②⑤口 |③-④⑤|
①口口④ |⑥---|
22
①口②⑥ |①-②-|
口口口⑤ |③-④-|
③口⑤④ |--⑤-|
口口④口 |--⑥-|
23
口①口口 |--①-|
④口⑤口 |②-③-|
③④口② |--④-|
口③口口 |--⑤-|
24
口①②① |----|
口②口② |----|
口①②① |①---|
口口口口 |②---|
25
口口口口 |①-②-|
口⑦口口 |③-④-|
②口⑥④ |⑤-⑥-|
①⑤口③ |⑦---|
26
②②①① |①---|
②⑤口① |--②-|
口口④口 |--③-|
①③口② |④-⑤-|
27
②②①① |①---|
②口⑤① |--②-|
口④口口 |--③-|
①口③② |④-⑤-|
28
⑨口⑧① |①---|
口⑦口⑤ |②-③④|
⑥口④口 |⑤-⑥⑦|
②③口② |⑧-⑨-|
29
口③口口 |①-②-|
①口②口 |--③-|
口⑤③④ |--④-|
口口口口 |⑤---|
30
②②①① |①---|
②⑤口① |--②-|
口口④口 |--③-|
①③口② |④-⑤-|
31
②②①① |①---|
②口⑤① |--②-|
口④口口 |--③-|
①口③② |④-⑤-|
32
口口口① |①-②③|
口⑦⑧④ |--④-|
②口③口 |⑤-⑥-|
⑤口口⑥ |⑦-⑧-|
33
①口④④ |①-②-|
口口⑤④ |--③-|
口④口② |--④-|
③口②口 |--⑤-|
34
口①口口 |----|
②口口口 |①-②-|
口③⑥口 |③-④-|
口口⑤④ |⑤-⑥-|
35
口②③④ |①-②-|
⑤口口⑤ |③-④-|
口口口① |----|
口口口口 |⑤---|
36
⑤口口口 |①---|
口①①口 |②---|
口④③② |③---|
口④③② |④-⑤-|
37
口口口④ |①-②-|
①⑦口口 |③-④-|
②⑤⑥口 |--⑤-|
③口口口 |⑥-⑦-|
38
⑤口口口 |①---|
⑥口①④ |②-③-|
⑦口口③ |④-⑤-|
口②口② |⑥-⑦-|
39
口⑤⑤口 |①-②-|
口③④口 |③-④-|
口①②口 |----|
口口口口 |⑤---|
40
口口口③ |----|
口⑤口④ |①-②-|
②口口⑤ |③-④-|
①口①⑥ |⑤-⑥-|
41
口④④口 |--①-|
③口①③ |②---|
口②②口 |③-④-|
口口口口 |----|
42
口口口① |----|
口口②口 |①-②-|
口⑥口③ |③-④-|
④⑤口口 |⑤-⑥-|
43
④③②口 |①-②-|
口口口口 |③-④-|
①⑤⑤口 |----|
口口口口 |⑤---|
44
口口口口 |①---|
⑦①①④ |②-③-|
⑥口口③ |④-⑤-|
口⑤②口 |⑥-⑦-|
45
口口口口 |①-②-|
口口口口 |③-④-|
⑤④③⑤ |----|
②口口① |⑤---|
46
②口①口 |①---|
③口④① |②-③-|
口⑥⑤⑦ |④-⑤-|
口口口口 |⑥-⑦-|
47
口④口④ |--①-|
口口④口 |②-③-|
口口口口 |----|
③②①口 |④---|
48
口口①口 |①---|
口口口① |②---|
②口①口
口口口口

口口口口
口⑤口口
口④⑤③ |③-④-|
④⑤④口 |--⑤-|
49
口③⑤④ |--①-|
②口③① |②---|
口③口口 |③---|
口口口口 |④-⑤-|
50
①②口口 |①---|
②口③口 |--②-|
口③口口 |----|
口口口口 |③---|
51
④④②② |①-②-|
口口口口 |③-④-|
口口口口 |----|
③③①① |----|
52
口口②① |①---|
口③口② |--②-|
口口③口 |----|
口口口口 |③---|
53
②②④④ |①-②-|
口口口口 |③-④-|
口口口口 |----|
①①③③ |----|
54
①②口口 |①---|
②口③口 |--②-|
口③口口 |----|
口口口口 |③---|
55
④④②② |①-②-|
口口⑤口 |③-④-|
口⑤口⑤ |----|
③③①① |⑤---|
56
④口口口 |①---|
口①口① |----|
③口①口 |②-③-|
②口口口 |④---|
57
口②口① |①---|
②口①口 |--②-|
口②口① |----|
②口①口 |----|
58
口口口③ |①---|
口口③口 |--②-|
口③口② |----|
口口②① |③---|
59
②④口口 |①-②-|
口口口口 |③-④-|
口口⑥⑤ |--⑤-|
①③口口 |⑥---|
60
③口口口 |①---|
口③口口 |--②-|
②口③口 |----|
①②口口 |③---|
61
口口④② |①-②-|
口口口口 |③-④-|
⑤⑥口口 |--⑤-|
口口③① |⑥---|
62
①②③④ |①-②-|
口口口④ |③-④-|
口口口口 |--⑤-|
口⑦⑥⑤ |⑥-⑦-|
63
④④口⑤ |①-②-|
③口口口 |③-④-|
②口⑥⑥ |--⑤-|
①口口口 |⑥---|
64
口③口口 |①---|
②口①④ |--②-|
口③口口 |③---|
口①口④ |--④-|
65
口⑥⑤④ |--①-|
口口①口 |--②-|
②③口口 |③-④-|
口口①口 |⑤-⑥-|
66
①口口口 |①---|
口⑤③① |--②-|
④口口② |③---|
口⑤③口 |④-⑤-|
67
②口口② |--①-|
口口⑤④ |②---|
③①①口 |--③-|
口口口口 |④-⑤-|
68
口①口口 |①---|
①口口口 |--②-|
口①口口
①②口口

③⑤③⑤
口③⑤口
口口口口 |③---|
口口④口 |④-⑤-|
69
口口②口 |--①-|
口③口① |----|
口①④口 |--②-|
口口口① |③-④-|
70
口③口② |①---|
③口④② |②-③-|
口④口⑤ |--④-|
①①⑤口 |--⑤-|
71
口口口① |----|
口口③② |①---|
②③口口 |②-③-|
①口口口 |----|
72
①②①② |①---|
口①②口 |----|
②口口口 |②---|
②②口口 |----|
73
口②口② |①---|
口①②① |----|
口①①① |②---|
口口①口 |----|
74
①口口④ |①---|
②①口口 |----|
③口①口 |--②-|
④口口① |③-④-|
75
口①②口 |--①-|
口①②⑤ |--②-|
④②①口 |--③-|
口②①③ |④-⑤-|
76
①①口口 |----|
①②口口 |①---|
口口①② |②---|
③口②② |--③-|
77
口④口③ |①-②-|
⑤⑥⑦② |③-④-|
①口④口 |--⑤-|
口口⑦口 |⑥-⑦-|
78
⑤口③④ |--①-|
⑤口口口 |②-③-|
①②③⑤ |--④-|
④口口⑤ |--⑤-|
79
口口口口 |----|
口①①口 |①---|
口②③口 |②-③-|
口①①口 |----|
80
④①①③ |①---|
口④③① |----|
②口④① |②-③-|
②②口④ |--④-|
81
口口口口 |----|
口口口口 |----|
口口口② |----|
口口口① |①-②-|
82
口①口② |①---|
①⑤④口 |②-③-|
③⑤④口 |--④-|
口③口口 |--⑤-|
83
口③②① |--①-|
⑥口口② |②-③-|
⑤口口③ |--④-|
④⑤⑥口 |⑤-⑥-|
84
口口口① |----|
②口口口 |----|
口②口口 |①---|
口口②口 |②---|
85
口①口口 |①---|
口口①口 |----|
口口口①
口口口口

口口口口
口口口口
②口口④ |②---|
②②口③ |③-④-|
86
口①口② |①---|
①⑤④口 |②-③-|
③⑤④口 |--④-|
口③口口 |--⑤-|
87
⑥③②① |--①-|
⑤口口④ |②-③-|
④口口⑤ |--④-|
①②③⑥ |⑤-⑥-|
88
口口口口 |----|
口口口口 |----|
口①②口 |----|
口口口口 |①-②-|
89
③口④口 |----|
①口②口 |----|
口口口口 |①-②-|
口口口口 |③-④-|
90
口①口② |①---|
口口口① |--②-|
口②④口 |----|
口口口③ |③-④-|
91
口口②口 |①-②-|
口①口口 |--③-|
③口⑤口 |--④-|
口③④口 |⑤---|
92
口口①① |①---|
口②②① |--②-|
②②口③ |----|
①口③口 |③---|
93
①①口口 |①---|
①口②② |--②-|
③②②口 |----|
口③口① |③---|
94
②口①口 |①---|
①口口口 |--②-|
口④②口 |----|
③口口口 |③-④-|
95
④②口口 |①-②-|
口④①口 |--③-|
口口④③ |--④-|
口口③④ |----|
96
口口①① |①---|
口口口① |----|
口口口口 |----|
①口口口 |----|

不確定度: 0

最終更新:2016年04月18日 01:40