惑星☆ロリポップ
SOUND HOLIC feat. Nana Takahashi

EXTREME

Level: 10
BPM: 180
Notes: 797

1
口口口口 |----|
口口口口 |----|
口口口口 |----|
口口口口 |----|
2
⑤口口口 |①---|
口①口口 |②---|
口②口③ |③-④-|
口口④口 |--⑤-|
3
口口口⑥ |--①-|
口口①⑤ |②-③-|
口②口④ |--④-|
③口口口 |⑤-⑥-|
4
口②②口 |①---|
③口口④ |②---|
⑤口口⑥ |③-④-|
口①①口 |⑤-⑥-|
5
①口口① |----|
口②口口 |--①-|
口口③口 |--②-|
口口口④ |③-④-|
6
⑤②②⑤ |①---|
③口口④ |②---|
③口口④ |③-④-|
口①①口 |--⑤-|
7
⑥口口口 |--①-|
⑤口①口 |②-③-|
④②口口 |--④-|
③口口口 |⑤-⑥-|
8
口①①② |①-②-|
口口口② |③-④-|
口口③口
口口④口

⑥⑥口口
⑥⑥口口
⑤口口口 |--⑤-|
口口口⑥ |--⑥-|
9
⑤口④① |--①-|
口⑤①② |②-③-|
④①②③ |④---|
①②③⑤ |⑤---|
10
口⑤⑤① |①-②-|
口⑥②口 |③-④-|
口③口口 |⑤--⑥|
④口⑦口 |⑦---|
11
①③③① |①---|
口口口口 |②-③-|
①口口①
②口口②

口口口口
⑥口口⑦
⑧口口⑨ |--④⑤|
口④⑤口 |⑥⑦⑧⑨|
12
①口口口 |①-②-|
口②口口 |③-④-|
口口③口
口口口④

⑧⑤⑤⑧
⑧口⑥⑧
口口口口 |⑤--⑥|
口⑦口口 |⑦-⑧-|
13
口⑤⑥口 |--①②|
⑬③⑫⑭ |③④⑤⑥|
⑦⑪④⑧ |⑦⑧⑨⑩|
①⑨⑩② |⑪⑫⑬⑭|
14
①⑤⑤口 |①-②-|
口②⑥口 |③-④-|
口口③口 |⑤--⑥|
口⑦口④ |⑦---|
15
①③③① |①---|
口口口口 |②-③-|
①口口①
②口口②

⑧口口⑨
④口口⑤
口口口口 |--④⑤|
口⑥⑦口 |⑥⑦⑧⑨|
16
⑮⑨⑩⑯ |①②③④|
⑬⑤⑥⑭ |⑤⑥⑦⑧|
⑦①②⑧ |⑨⑩⑪⑫|
③⑪⑫④ |⑬⑭⑮⑯|
17
⑥⑥⑥⑥ |①-②-|
口③③口 |③-④-|
④①①④ |--⑤-|
②⑤⑤② |⑥---|
18
口口口口 |①---|
②口④③ |②---|
口口口口 |③---|
①口口① |--④-|
19
口口口口 |①-②-|
口口口⑦ |③-④-|
口①②⑥ |--⑤-|
口③④⑤ |⑥-⑦-|
20
①口口② |----|
口口口口 |①---|
口口口口 |②---|
口口③口 |--③-|
21
口口口④ |①-②-|
⑦口口③ |③-④-|
⑥口口② |--⑤-|
⑤口口① |⑥-⑦-|
22
①口口② |----|
口口③口 |①---|
口口口口 |②---|
口口口口 |--③-|
23
口口口口 |①-②-|
⑤口口口 |③-④-|
⑥①②口 |--⑤-|
⑦③④口 |⑥-⑦-|
24
①④④① |①---|
⑤③②口 |②-③-|
⑤②③口 |--④-|
口口口口 |--⑤-|
25
⑦⑥口⑤ |①-②-|
⑧⑤②① |③-④-|
⑨④③① |⑤-⑥⑦|
⑩口口④ |⑧⑨⑩-|
26
口②②口 |----|
口③口① |①---|
口口口① |②---|
口口口口 |--③-|
27
口口口口 |①-②-|
⑦口口口 |③-④-|
⑥②①口 |--⑤-|
⑤④③口 |⑥-⑦-|
28
②口口① |----|
口口口口 |①---|
口口口口 |②---|
口③口口 |--③-|
29
④⑤口口 |①-②-|
③⑤⑤口 |③-④-|
②口⑤⑤ |--⑤-|
①口口口 |----|
30
口口口口 |--①-|
⑤⑥⑦口 |②-③-|
④口口口 |④-⑤-|
③②①口 |⑥-⑦-|
31
②口口③ |--①-|
口口口④ |②-③-|
口②③⑤ |--④-|
口①①⑥ |⑤-⑥-|
32
⑥③①口 |①---|
③①②④ |②---|
①②⑤口 |③--④|
口④口⑥ |⑤-⑥-|
33
⑤③②① |--①-|
③②①④ |②-③-|
②①口口 |④---|
①④口⑤ |⑤---|
34
口②口① |①---|
②④口口 |②-③-|
口口④③ |--④-|
①口③口 |----|
35
口口口① |①-②-|
口口②⑦ |③-④-|
口③口⑥ |--⑤-|
④口口⑤ |⑥-⑦-|
36
①口口口 |--①-|
②口④口 |②-③-|
③⑤口口 |--④-|
⑥口口口 |⑤-⑥-|
37
⑦①①口 |①-②-|
②⑥口② |③-④-|
③口⑤③ |--⑤-|
口④④口 |⑥-⑦-|
38
口口④⑤ |①---|
口口①① |②-③-|
口口⑤④ |--④-|
口口③② |⑤---|
39
⑤④口口 |①---|
①①口④ |②-③-|
④⑤口⑤ |--④-|
②③口⑥ |⑤-⑥-|
40
口口①① |①---|
④③③⑤ |②-③-|
④口口⑤ |--④-|
口②②口 |⑤---|
41
①②③④ |①-②-|
口口⑥口 |③-④-|
口⑥口口 |⑤---|
⑤口口⑤ |--⑥-|
42
口⑤④口 |①---|
③①口② |②③④⑤|
口口①口
口口口口

⑪口口⑩
口⑨⑧口
⑦口口⑥ |⑥-⑦-|
⑦口口⑥ |⑧⑨⑩⑪|
43
⑫⑤⑤⑫ |①②③④|
⑨口口⑥ |⑤---⑥⑦⑧-|
⑩②①⑦ |--⑨⑩⑪---|
⑪④③⑧ |⑫---|
44
口②②口 |①---|
口①①口 |②---|
口②②口
口①①口

口口口口
③口口③
④口口④ |③-④-|
③⑤⑤③ |--⑤-|
45
①口口⑤ |--①-|
口③②⑤ |②-③-|
④②①口 |--④-|
④口口③ |⑤---|
46
②⑤口④ |①---|
⑤口③⑥ |②---|
口③口① |③-④-|
④⑥①② |⑤-⑥-|
47
①口①④ |----|
口①③口 |--①-|
①③①口 |--②-|
④口口② |③-④-|
48
②②②口 |①---|
②口口口 |②---|
②口口①
口口①口

口口口口
口③口④
口口口⑤ |③-④-|
口④⑤③ |--⑤-|
49
④④口① |--①-|
口③②口 |②-③-|
口②③口 |--④-|
①口⑤⑤ |⑤---|
50
口口①④ |①-②-|
口口③② |③-④-|
①③口口
④②口口

⑤⑥⑦口
⑥口口口
⑦口⑤口 |--⑤-|
口口口口 |⑥-⑦-|
51
⑨⑩⑩口 |①②③④|
⑩③②① |⑤⑥⑦⑧|
⑩④⑨⑧ |⑨---|
口⑤⑥⑦ |⑩---|
52
③⑤④① |①---|
⑤口口② |②---|
④口③② |③-④-|
①②②② |--⑤-|
53
⑤口口① |--①-|
⑤③②口 |②-③-|
口①③④ |--④-|
②口口④ |⑤---|
54
口口口② |①---|
口口②口 |②---|
①②口口
②①口口

④口⑤口
⑥③口⑤
⑥口③口 |③-④-|
口⑥⑥④ |⑤-⑥-|
55
④①口① |----|
口③②口 |--①-|
口①③① |--②-|
②口口④ |③-④-|
56
⑤②②② |①---|
③口④② |②---|
①③口② |③-④-|
④①③⑤ |--⑤-|
57
口①口⑤ |--①-|
口②口⑤ |②-③-|
④③②① |--④-|
④口口口 |⑤---|
58
②②①口 |①-②-|
口口①口 |③-④-|
口③口口
口④口口

口口⑥⑥
口口⑥⑥
口口口⑤ |--⑤-|
⑥口口口 |--⑥-|
59
①④口⑤ |--①-|
②①⑤口 |②-③-|
③②①④ |④---|
⑤③②① |⑤---|
60
③口口口 |①-②-|
③④⑤⑥ |③---|
③②①⑥ |④-⑤-|
口口口⑥ |⑥---|
61
⑤③③⑤ |①---|
②口口口 |②---|
②口口口 |③---|
④①①④ |④-⑤-|
62
口口④④ |①---|
口口口④ |②---|
口①②③ |③---|
口口口口 |--④-|
63
口口口口 |--①-|
①口②口 |②---|
口③口口 |③---|
②口①口 |----|
64
④③②① |①---|
口口⑤② |②---|
口口口③ |③---|
⑤口口④ |④-⑤-|
65
口口口③ |--①-|
③⑤口④ |②---|
②②①⑤ |③-④-|
⑤③①⑥ |⑤-⑥-|
66
④④口口 |①---|
④口口口 |②---|
③②①口 |③---|
口口口口 |--④-|
67
口口口口 |--①-|
口①②① |②---|
口②③② |③---|
口①②① |----|
68
①②口⑤ |①---|
②口③口 |②---|
口③口④ |③---|
⑤口④① |④-⑤-|
69
①口②口 |--①-|
口口③④ |②---|
②口①口 |③---|
口口④③ |④---|
70
①⑤⑤口 |①-②-|
口②⑥口 |③-④-|
口口③口 |⑤--⑥|
口⑦口④ |⑦---|
71
①③③① |①---|
口口口口 |②-③-|
①口口①
②口口②

口口口口
⑦口口⑥
⑨口口⑧ |--④⑤|
口⑤④口 |⑥⑦⑧⑨|
72
口口口① |①-②-|
口口②口 |③-④-|
口③口口
④口口口

⑧⑤⑤⑧
⑧⑥口⑧
口口口口 |⑤--⑥|
口口⑦口 |⑦-⑧-|
73
口⑥⑤口 |--①②|
⑭⑫③⑬ |③④⑤⑥|
⑧④⑪⑦ |⑦⑧⑨⑩|
②⑩⑨① |⑪⑫⑬⑭|
74
口⑤⑤① |①-②-|
口⑥②口 |③-④-|
口③口口 |⑤--⑥|
④口⑦口 |⑦---|
75
①③③① |①---|
口口口口 |②-③-|
①口口①
②口口②

⑨口口⑧
⑤口口④
口口口口 |--④⑤|
口⑦⑥口 |⑥⑦⑧⑨|
76
⑯⑩⑨⑮ |①②③④|
⑭⑥⑤⑬ |⑤⑥⑦⑧|
⑧②①⑦ |⑨⑩⑪⑫|
④⑫⑪③ |⑬⑭⑮⑯|
77
⑯⑫⑪⑮ |①②③④|
⑭⑥⑤⑬ |⑤⑥⑦⑧|
⑧②①⑦ |⑨⑩⑪⑫|
④⑩⑨③ |⑬⑭⑮⑯|
78
⑯⑫⑪⑮ |①②③④|
⑭④③⑬ |⑤⑥⑦⑧|
⑧②①⑦ |⑨⑩⑪⑫|
⑥⑩⑨⑤ |⑬⑭⑮⑯|
79
⑤⑤⑤⑤ |①---|
口②②口 |②---|
③①①③ |③-④-|
②④④② |⑤---|

不確定度: 0

最終更新:2016年04月18日 01:38