TWINKLING
猫叉Master feat.ミミニャミ

ADVANCED

Level: 6
BPM: 152
Notes: 405

1
口口口口 |----|
口口口口 |----|
口口口口 |----|
口口口口 |----|
2
口口口口 |①---|
口口口口 |----|
口口口口 |②---|
①口口② |----|
3
口口口口 |①---|
口口口口 |----|
①口口② |②---|
口口口口 |----|
4
口口口口 |①---|
①口口② |----|
口口口口 |②---|
口口口口 |----|
5
①口口③ |①---|
口口④口 |②---|
口口口口 |③---|
口口②口 |④---|
6
②②口口 |①---|
口口口口 |----|
口①口口 |②---|
口口口口 |----|
7
口口口口 |①---|
口口②口 |----|
口口口① |②---|
口口口口 |----|
8
①①②② |①---|
口口口口 |②---|
口③③口 |③---|
口口口口 |----|
9
③③③③ |①---|
口口口口 |②---|
②口口② |③---|
①口口① |----|
10
口口口② |①---|
口口③口 |②---|
口④口口 |③---|
口①口口 |④---|
11
④口⑤口 |①-②-|
口⑥口③ |③-④-|
②口⑦口 |⑤-⑥-|
口⑧口① |⑦-⑧-|
12
口口口① |--①-|
②口口③ |②-③-|
④口口⑤ |④-⑤-|
⑥口口⑦ |⑥-⑦-|
13
口⑤①口 |①-②-|
口②⑥口 |③-④-|
口⑦③口 |⑤-⑥-|
口④⑧口 |⑦-⑧-|
14
口口③口 |----|
口②口口 |①---|
①口口口 |②---|
口口口口 |③---|
15
口口口口 |①---|
④口口口 |②---|
口③口口 |③---|
②口口① |④---|
16
口①③口 |①---|
口④口口 |②---|
口口⑤② |③-④-|
口⑥口口 |⑤-⑥-|
17
①口⑤口 |①-②-|
口⑥口② |③-④-|
③口⑦口 |⑤-⑥-|
口⑧口④ |⑦-⑧-|
18
口口口口 |①---|
口口①口 |----|
②口口③ |②-③-|
④口口⑤ |④-⑤-|
19
①①②② |①-②-|
③③④④ |③-④-|
⑤⑤⑥⑥ |⑤-⑥-|
⑦⑦⑧⑧ |⑦-⑧-|
20
①②③口 |--①-|
口⑥⑤④ |②-③-|
口口口口 |--④-|
口口口口 |⑤-⑥-|
21
口口口口 |--①-|
口口口口 |②-③-|
①②③口 |--④-|
口⑥⑤④ |⑤-⑥-|
22
③口口口 |--①-|
②口口④ |②-③-|
①口口⑤ |--④-|
口口口⑥ |⑤-⑥-|
23
口③④口 |--①-|
口⑤②口 |②-③-|
口①⑥口 |④-⑤-|
口⑦口口 |⑥-⑦-|
24
口口口② |----|
口口口口 |①---|
口口口口 |②---|
口口口① |----|
25
口口口口 |--①-|
口③②⑤ |②-③-|
口①④口 |④---|
口口口口 |⑤---|
26
口③②口 |--①-|
口①④口 |②-③-|
口口口口 |④---|
口口口⑤ |⑤---|
27
口⑤④口 |①-②-|
口③⑥口 |③-④-|
口⑦②口 |⑤-⑥-|
口①⑧口 |⑦-⑧-|
28
口口口口 |----|
①①口口 |①---|
口④③② |②-③-|
口口口口 |④---|
29
口口口口 |----|
口口①① |①---|
②③④口 |②-③-|
口口口口 |④---|
30
口口口口 |----|
口口口口 |①---|
口④③② |②-③-|
①①口口 |④---|
31
③口口④ |--①-|
⑤口口② |②-③-|
①口口⑥ |④-⑤-|
⑦口口口 |⑥-⑦-|
32
口口口口 |----|
口口①① |①---|
②③④口 |②-③-|
口口口口 |④---|
33
口口口口 |----|
①①口口 |①---|
口④③② |②-③-|
口口口口 |④---|
34
口口口口 |----|
口口口口 |①---|
②③④口 |②-③-|
口⑤①① |④-⑤-|
35
口口①① |①---|
口口②② |②---|
口口③③ |③---|
口口④④ |④---|
36
①口口② |----|
③口口④ |①-②-|
⑤口口口 |③-④-|
口口口口 |⑤---|
37
口口口口 |①-②-|
口口⑤口 |③-④-|
口④③⑦ |⑤---|
⑥②①口 |⑥-⑦-|
38
①①口口 |①---|
口口②口 |----|
口③口口 |----|
口口口口 |②-③-|
39
②②③③ |①---|
口口口口 |②---|
口口口口 |③---|
④④①① |④---|
40
口口④口 |----|
口③口口 |①---|
②①①口 |②-③-|
口口口口 |④---|
41
⑤口口④ |①-②-|
③口口口 |③-④-|
口⑦口② |⑤---|
口①⑥口 |⑥-⑦-|
42
口②③口 |①-②-|
④口口① |③---|
口口口⑤ |----|
口口口口 |④-⑤-|
43
③口口③ |①---|
口口口口 |②---|
口②②口 |③---|
口①①口 |----|
44
口口口口 |----|
口①①② |①---|
口口③口 |②-③-|
口④口口 |④---|
45
④口口⑤ |①-②-|
口口口③ |③-④-|
②口⑦口 |⑤---|
口⑥口① |⑥-⑦-|
46
口①①口 |①---|
口口口口 |----|
口②口口 |----|
口口③口 |②-③-|
47
③③口口 |①-②-|
④④口口 |③---|
⑤⑤口② |④---|
①口口口 |⑤---|
48
口口口口 |----|
口②①① |①---|
口口③口 |②-③-|
口口口④ |④---|
49
①②③④ |①-②-|
口口口口 |③-④-|
口⑤⑥口 |--⑤-|
口口口口 |⑥---|
50
口口口口 |----|
口口口口 |----|
口口口口 |----|
口口口口 |----|
51
口口口口 |----|
口④口口 |--①-|
口①③口 |②-③-|
口口口② |④---|
52
①①①① |①---|
口口口口 |----|
②口口③ |----|
口口口口 |②-③-|
53
口口口口 |--①-|
口③口口 |②-③-|
口④⑤口 |--④-|
口①②口 |⑤---|
54
①①①① |①---|
口口口口 |----|
②口口③ |----|
口口口口 |②-③-|
55
口口口口 |--①-|
口③口口 |②-③-|
口口口口 |--④-|
④①②⑤ |⑤---|
56
①①①① |①---|
口口口口 |----|
②口口③ |----|
口口口口 |②-③-|
57
口口口口 |--①-|
④③口⑤ |②-③-|
口口口口 |--④-|
口①②口 |⑤---|
58
④④口口 |①---|
③③口口 |②---|
②②口口 |③---|
①①⑤口 |④-⑤-|
59
口口①① |①---|
口口②② |②---|
口口③③ |③---|
口口④④ |④---|
60
①①①① |①---|
口口口口 |----|
②口口③ |----|
口口口口 |②-③-|
61
口口口口 |--①-|
口③口口 |②-③-|
口④⑤口 |--④-|
口①②口 |⑤---|
62
①①①① |①---|
口口口口 |----|
②口口③ |----|
口口口口 |②-③-|
63
口口口口 |--①-|
口③口口 |②-③-|
口口口口 |--④-|
④①②⑤ |⑤---|
64
①①①① |①---|
口口口口 |----|
②口口③ |----|
口口口口 |②-③-|
65
口口口口 |--①-|
④③口⑤ |②-③-|
口口口口 |--④-|
口①②口 |⑤---|
66
④④口口 |①---|
③③口口 |②---|
②②口口 |③---|
①①⑤口 |④-⑤-|
67
口口①① |①---|
口口②② |②---|
口口③③ |③---|
口口口口 |----|
68
④口口口 |①---|
口口口③ |②---|
②口口口 |③---|
口口口① |④---|
69
口口口① |①---|
②口口口 |②---|
口口口③ |③---|
④口口口 |④---|
70
④口口口 |①---|
口口口③ |②---|
②口口口 |③---|
口口口① |④---|
71
口口口① |①---|
②口口口 |②---|
口口口③ |③---|
④口口口 |④---|
72
口口口口 |①---|
口口口口 |----|
口②②口 |②---|
口①①口 |----|
73
口②②口 |①---|
口①①口 |----|
口口口口 |②---|
口口口口 |----|
74
口口口口 |①---|
口口口口 |----|
②口口② |②---|
①口口① |----|
75
②口口② |①---|
①口口① |----|
口口口口 |②---|
口口口口 |----|

不確定度: 0

最終更新:2016年04月18日 01:37