TWINKLING
猫叉Master feat.ミミニャミ

EXTREME

Level: 9
BPM: 152
Notes: 713

1
口口口口 |----|
口口口口 |----|
口口口口 |----|
口口口口 |----|
2
口口口④ |①-②-|
⑤⑥口③ |③-④-|
②口⑧口 |⑤-⑥-|
①口⑦口 |⑦-⑧-|
3
③④口⑤ |①-②-|
⑥⑦⑧⑨ |③-④-|
口口口② |⑤--⑥⑦⑧|
⑩口口① |⑨-⑩-|
4
③口口口 |①-②-|
④口⑥⑤ |③-④-|
口⑦②口 |⑤-⑥-|
口⑧①口 |⑦-⑧-|
5
口口⑤⑤ |①-②-|
③③⑥口 |③-④-|
④⑦口② |⑤-⑥-|
⑧⑦口① |⑦-⑧-|
6
口⑤口⑤ |①-②-|
③⑤⑤⑤ |③-④-|
④⑤②⑤ |⑤---|
口口①① |----|
7
①口②口 |①---|
①口口⑪ |②--③④⑤|
⑥⑤④③ |⑥--⑦⑧⑨|
⑩⑨⑧⑦ |⑩-⑪-|
8
①②口② |①---|
①③②④ |②---|
③口②口 |③---|
③口口口 |--④-|
9
①口①口 |①---|
口口口口 |②---|
口口口口
②口②口

④③口口
⑤③③口
⑥③③口 |③---|
⑦口口口 |④⑤⑥⑦|
10
⑦⑦②① |①-②-|
⑧口口① |③-④-|
口③④⑥ |⑤-⑥-|
口③⑤⑤ |⑦-⑧-|
11
口口口① |①-②-|
口②③④ |③-④-|
口口口口
②口④③

⑤⑤口⑩
口口口口
⑨⑧⑦⑥ |⑤--⑥⑦⑧|
口口口口 |⑨-⑩-|
12
口④④口 |--①-|
⑥②②⑦ |②-③-|
⑥⑤口⑦ |④-⑤-|
①口口③ |⑥-⑦-|
13
①⑦口① |①--②③④|
⑦⑧⑩⑨ |⑤-⑥-|
口⑥⑨口 |⑦-⑧-|
⑤④③② |⑨-⑩-|
14
口⑤③③ |①-②-|
④⑤⑦⑦ |③-④-|
口⑧⑥② |⑤-⑥-|
①口口① |⑦-⑧-|
15
④口②② |--①-|
④③⑥⑥ |②-③-|
口口⑤① |④-⑤-|
口口口口 |⑥---|
16
③①②④ |①-②-|
口口口口 |③-④-|
①③④②
口口口口

口口⑩口
⑤口口口
口口口口 |⑤--⑥⑦⑧|
⑨⑧⑦⑥ |⑨-⑩-|
17
①口口⑭ |①--②③④|
⑤④③② |⑤--⑥⑦⑧|
⑨⑧⑦⑥ |⑨--⑩⑪⑫|
⑬⑫⑪⑩ |⑬-⑭-|
18
④口⑤⑥ |①-②-|
①③口⑦ |③-④-|
口口②⑧ |⑤--⑥⑦⑧|
⑩口口⑨ |⑨-⑩-|
19
②①③④ |①-②-|
口③①口 |③-④-|
口④②口
口口口口

口口口口
⑥口⑦⑤
⑤口口口 |⑤-⑥-|
⑧⑦⑧⑥ |⑦-⑧-|
20
③②①口 |--①-|
口④⑤⑥ |②-③-|
口③②① |--④-|
④⑤⑥口 |⑤-⑥-|
21
口①②③ |--①-|
⑥⑤④口 |②-③-|
①②③口 |--④-|
口⑥⑤④ |⑤-⑥-|
22
③②①口 |--①-|
口④⑤⑥ |②-③-|
口③②① |--④-|
④⑤⑥口 |⑤-⑥-|
23
口④口口 |①-②-|
③⑧⑤⑦ |③-④-|
口②①口 |⑤-⑥-|
口口口⑥ |⑦-⑧-|
24
口口②口 |----|
口口口② |①---|
①口口口 |②---|
口①口口 |----|
25
②口口口 |--①-|
口④口口 |②-③-|
口口③口 |④---|
⑤⑤口① |⑤---|
26
口②③口 |--①②|
⑧⑥⑤⑦ |③④⑤⑥|
⑧④①⑦ |⑦---|
口口口口 |⑧---|
27
口口④口 |①-②-|
⑦⑤⑧③ |③-④-|
口①②口 |⑤-⑥-|
⑥口口口 |⑦-⑧-|
28
口②口口 |----|
口①口③ |①---|
口口①口 |②-③-|
④口口① |④---|
29
口①④③ |----|
口②⑤② |①-②-|
口③④① |③-④-|
口口口口 |⑤---|
30
①口口口 |----|
①口口口 |①---|
口④③② |②-③-|
口④③② |④---|
31
口④③口 |--①-|
口②⑤口 |②-③-|
①⑥口口 |④-⑤-|
口口⑦口 |⑥-⑦-|
32
口③①口 |----|
③②④① |①-②-|
口④②⑤ |③-④-|
口口⑤口 |⑤---|
33
①口口② |----|
口口⑤口 |①-②-|
口口口口 |③-④-|
④口口③ |⑤---|
34
口②①口 |----|
口③④口 |①---|
口口口口 |②-③-|
⑤①②⑤ |④-⑤-|
35
①口口① |①---|
②口口② |②---|
③口口③ |③---|
④口口④ |④---|
36
①口口口 |----|
⑤②口③ |①-②-|
口①④口 |③-④-|
口⑤③口 |⑤---|
37
口口①口 |①-②-|
口③②口 |③-④-|
口④⑦① |⑤---|
③⑥⑤⑤ |⑥-⑦-|
38
①①口口 |①---|
③口口② |----|
③口口② |----|
口口口口 |②-③-|
39
④口口⑤ |①---|
④③③⑤ |②---|
口②②口 |③---|
①口口① |④-⑤-|
40
口②口口 |----|
口②口口 |①---|
④②口③ |②-③-|
①②口① |④---|
41
口口⑤口 |①-②-|
口口④口 |③-④-|
口口③口 |⑤---|
⑥⑦②① |⑥-⑦-|
42
口③口口 |①-②-|
⑤②口④ |③---|
口①口口 |----|
口口口口 |④-⑤-|
43
③口口③ |①---|
口②②口 |②---|
口③③口 |③---|
口①①口 |----|
44
口口口口 |----|
①②④① |①---|
口③口口 |②-③-|
②口口④ |④---|
45
口③口① |①-②-|
口④⑤② |③-④-|
③⑦①口 |⑤---|
口口⑥⑤ |⑥-⑦-|
46
口口①① |①---|
②口口口 |----|
③口口口 |----|
口口口口 |②-③-|
47
③③③口 |①-②-|
口④④④ |③---|
⑤口口⑥ |④---|
①⑤⑥② |⑤-⑥-|
48
②②①口 |----|
口③③口 |①---|
口口①口 |②-③-|
口口④④ |④---|
49
口口口③ |①-②-|
②⑤口口 |③-④-|
口口口① |--⑤-|
④④⑥⑥ |⑥---|
50
④③②① |①②③④|
⑧⑦⑥⑤ |⑤⑥⑦⑧|
⑫⑪⑩⑨ |⑨⑩⑪⑫|
⑯⑮⑭⑬ |⑬⑭⑮⑯|
51
④③②① |①②③④|
⑦⑤⑤口 |⑤-⑥-|
口口口⑥ |⑦-⑧-|
⑨口口⑧ |⑨---|
52
⑦⑧⑨⑩ |①②③④⑤⑥|
⑥①②⑪ |⑦⑧⑨⑩⑪⑫|
⑤④③⑫
口口口口

口口口口
口口⑭口
口口口口 |⑬---|
⑮口口⑬ |⑭-⑮-|
53
④口④口 |--①-|
①③口口 |②-③-|
口口口口 |--④-|
⑤③⑤② |⑤---|
54
⑩⑨⑧⑦ |①②③④⑤⑥|
⑪②①⑥ |⑦⑧⑨⑩⑪⑫|
⑫③④⑤
口口口口

口口口口
口口口口
口⑮⑮口 |⑬---|
⑬⑭⑭口 |⑭-⑮-|
55
口③③④ |--①-|
①口口口 |②-③-|
口口口口 |--④-|
⑤口口② |⑤---|
56
⑦⑧⑨⑩ |①②③④⑤⑥|
⑥①②⑪ |⑦⑧⑨⑩⑪⑫|
⑤④③⑫
口口口口

口口口口
口⑭口口
口口口口 |⑬---|
口口⑮⑬ |⑭-⑮-|
57
①④④② |--①-|
口⑤⑤口 |②-③-|
③口口口 |--④-|
口口口口 |⑤---|
58
④口口④ |①---|
③⑤③口 |②---|
口②口② |③---|
①口①口 |④-⑤-|
59
口③③口 |①-②-|
口口口口 |③---|
口口口口
②口口①

口口口口
口口口⑤
口口口口 |④---|
⑥④④口 |⑤-⑥-|
60
⑦⑧⑨⑩ |①②③④⑤⑥|
⑥①②⑪ |⑦⑧⑨⑩⑪⑫|
⑤④③⑫
口口口口

口口口口
口口⑭口
口口口口 |⑬---|
⑮口口⑬ |⑭-⑮-|
61
④口④口 |--①-|
①③口口 |②-③-|
口口口口 |--④-|
⑤③⑤② |⑤---|
62
⑩⑨⑧⑦ |①②③④⑤⑥|
⑪②①⑥ |⑦⑧⑨⑩⑪⑫|
⑫③④⑤
口口口口

口口口口
口口口口
口⑮⑮口 |⑬---|
⑬⑭⑭口 |⑭-⑮-|
63
口③③④ |--①-|
①口口口 |②-③-|
口口口口 |--④-|
⑤口口② |⑤---|
64
⑦⑧⑨⑩ |①②③④⑤⑥|
⑥①②⑪ |⑦⑧⑨⑩⑪⑫|
⑤④③⑫
口口口口

口口口口
口⑭口口
口口口口 |⑬---|
口口⑮⑬ |⑭-⑮-|
65
①④④② |--①-|
口⑤⑤口 |②-③-|
③口口口 |--④-|
口口口口 |⑤---|
66
口口④③ |①---|
②③③④ |②---|
口②②① |③---|
⑤①①口 |④-⑤-|
67
①①⑤⑤ |①---|
口②②口 |②---|
口口③③ |③-④-|
口口口④ |⑤---|
68
⑦⑤口口 |①-②-|
③⑥口口 |③-④-|
④②口口 |⑤-⑥-|
①⑧口口 |⑦-⑧-|
69
口口⑤⑦ |①-②-|
口口⑥③ |③-④-|
口口②④ |⑤-⑥-|
口口⑧① |⑦-⑧-|
70
口⑥口⑦ |①-②-|
③⑤口口 |③-④-|
④②口口 |⑤-⑥-|
①⑧口口 |⑦-⑧-|
71
④⑤⑥⑦ |①-②-|
⑧⑨⑩⑪ |③--④⑤⑥|
③口②口 |⑦--⑧⑨⑩|
⑫口口① |⑪-⑫-|
72
口口口口 |①---|
口口口口 |----|
口口②② |②---|
口口口① |----|
73
②②②② |①---|
口①①① |----|
口口口口 |②---|
口口口口 |----|
74
口口口口 |①---|
口口口口 |----|
②②口口 |②---|
①口口口 |----|
75
②②②② |①---|
①①①口 |----|
口口口口 |②---|
③③③③ |③---|

不確定度: 0

最終更新:2016年04月18日 01:37