女言葉の消失
Sota Fujimori

BASIC

Level: 4
BPM: 136
Notes: 333

1
口口口口 |----|
口口口口 |----|
口口口口 |----|
口口口口 |----|
2
口口口口 |①---|
②③口口 |----|
口①口口 |②---|
口口口口 |③---|
3
③口②③ |①---|
口口①口 |----|
口口口口 |②---|
口口口口 |③---|
4
口口口口 |①---|
①口口② |----|
口口口口 |②---|
口口口口 |----|
5
口口口口 |①---|
口口口③ |----|
①口口② |②---|
口口口口 |③---|
6
④①口④ |①---|
口口②口 |②---|
口③口口 |③---|
口口口口 |④---|
7
口口①口 |----|
口②口口 |①---|
口口③口 |②---|
口口口口 |③---|
8
口口口口 |①---|
②口口① |----|
口口口口 |②---|
口口口口 |----|
9
口口口口 |①---|
③口口口 |----|
②口口① |②---|
口口口口 |③---|
10
④口①④ |①---|
口②口口 |②---|
口口③口 |③---|
口口口口 |④---|
11
口①口口 |----|
口口②口 |①---|
口③口口 |②---|
口口口口 |③---|
12
口口口口 |①---|
口口口② |----|
口口①③ |②---|
口口口口 |③---|
13
④口口④ |①---|
口③口口 |②---|
口②②口 |③---|
口①①① |④---|
14
口③口口 |①---|
②④口① |----|
口口口口 |②---|
口口口口 |③-④-|
15
口口②① |----|
口口③口 |①---|
口口口口 |----|
口口口口 |②-③-|
16
①②③口 |----|
口口口口 |①---|
口口口口 |②---|
口口口口 |③---|
17
口口口口 |①---|
口③③口 |②--③|
①②②① |----|
④口口④ |④---|
18
口口③口 |①---|
①口④② |----|
口口口口 |②---|
口口口口 |③-④-|
19
①②口口 |----|
口③口口 |①---|
口口口口 |----|
口口口口 |②-③-|
20
口③②① |----|
口口口口 |①---|
口口口口 |②---|
口口口口 |③---|
21
口口口口 |①---|
④口口④ |②--③|
①②②① |----|
口③③口 |④---|
22
①口③① |①---|
口口④② |----|
口口口口 |②---|
口口口口 |③-④-|
23
②③口口 |①---|
口④口口 |--②-|
口口①口 |--③-|
口口口口 |④---|
24
口③②① |----|
口口口口 |①---|
口口口口 |②---|
口口口口 |③---|
25
口口口口 |①--②|
口④⑤① |--③-|
口口口② |--④-|
口口口③ |⑤---|
26
①③口① |①---|
②④口口 |----|
口口口口 |②---|
口口口口 |③-④-|
27
口口口② |①---|
口④③口 |--②-|
口①口口 |-③-④|
口口口口 |----|
28
①②③口 |----|
口口口口 |①---|
口口口口 |②---|
口口口口 |③---|
29
口口口口 |①--②|
①⑤④口 |--③-|
②口口口 |-④-⑤|
③口口口 |----|
30
②口口口 |①---|
口口口口 |----|
口①①口 |②---|
口口口口 |----|
31
口③②① |①---|
口口口口 |②---|
口口口口 |③---|
口口口口 |----|
32
口口口口 |①-②-|
口①①③ |----|
口②②口 |③---|
口口口口 |----|
33
③②②③ |①---|
①口口口 |----|
口口口口 |②---|
口口口口 |③---|
34
口口口口 |①---|
①②口④ |②-③-|
口③口口 |----|
口口口口 |④---|
35
口④④口 |①-②-|
⑤口①口 |③---|
⑥口②口 |④---|
口口③口 |⑤-⑥-|
36
口口口口 |①---|
口口⑤② |②-③-|
口口口③ |④---|
①口口④ |--⑤-|
37
口口口口 |①---|
口①口口 |②---|
口口②口 |③--④|
③④⑤口 |--⑤-|
38
①①①① |----|
②口口口 |①---|
口口口口 |----|
口口口口 |②---|
39
口④④口 |①-②-|
口①口⑤ |③---|
口②口⑥ |④---|
口③口口 |⑤-⑥-|
40
口口口口 |①---|
②⑤⑤口 |②-③-|
③口口口 |④--⑤|
④口口① |----|
41
口口口口 |①---|
口口口口 |②---|
①口口② |③--④|
口⑤④③ |--⑤-|
42
口口口口 |①---|
①②口④ |②-③-|
口③口口 |----|
口口口口 |④---|
43
⑥⑦口口 |①-②-|
口①②口 |③-④-|
口③④口 |⑤---|
口⑤口口 |⑥-⑦-|
44
口口①口 |①---|
口口口口 |②-③-|
口口③②
口口口口

口口⑤口
口口口口
口④口口 |④---|
口口口口 |--⑤-|
45
口①口口 |①---|
③②口口 |②---|
④口口口 |③--④|
⑤口口口 |--⑤-|
46
口口口口 |①---|
④口口① |②-③-|
口③②口 |----|
口口口口 |④---|
47
口口口口 |①-②-|
口②①口 |③-④-|
口④③口
口口口口

口口口口
口口⑦⑥
口口口口 |⑤---|
口口⑤口 |⑥-⑦-|
48
口口口口 |①---|
口①口口 |②-③-|
口口口口
②③口口

口口口口
口⑤⑤⑥
口口口口 |④--⑤|
口口④口 |--⑥-|
49
口口口口 |①-②-|
①⑥⑥口 |③-④-|
③口口② |⑤--⑥|
⑤口口④ |----|
50
①②③① |①---|
口口口口 |----|
口口口口 |②---|
口口口口 |③---|
51
口口口① |①---|
②口口⑤ |②-③-|
③口口⑥ |④---|
④口口口 |⑤-⑥-|
52
口口口口 |①---|
口②③口 |--②-|
口④⑤口 |③-④-|
口⑥口① |⑤-⑥-|
53
口口口口 |①---|
口口口口 |----|
口口口口
口口①口

口口口口
口口口口
口②②口 |②-③-|
口⑤④③ |④-⑤-|
54
②②②② |①---|
口口③口 |②---|
口④口口 |③---|
①口口口 |④---|
55
②③④口 |①---|
口口⑥⑤ |②-③-|
口口口口 |④---|
口口①口 |⑤-⑥-|
56
口口口口 |①---|
⑥①口口 |--②-|
④口口⑤ |③-④-|
②口口③ |⑤-⑥-|
57
口③③口 |①---|
口②②① |----|
口口口口 |②---|
口口口口 |③---|
58
口口口口 |①-②-|
口④口口 |③--④|
①②③口 |----|
口口口口 |----|
59
口①①① |①---|
口②②② |②---|
口③口口 |③---|
口④④④ |④---|
60
①②③口 |①---|
口④口口 |②---|
⑤口口口 |③---|
口口口口 |④-⑤-|
61
口⑤⑤口 |①---|
口④④口 |②---|
口口口口 |③---|
口①②③ |④-⑤-|
62
③口口③ |----|
口口口口 |①---|
口①②口 |②---|
口口口口 |③---|
63
口口口口 |----|
②①口口 |①---|
③口口口 |②--③|
④口口口 |--④-|
64
口口口口 |①---|
口口口⑤ |②---|
口口④口 |③---|
口③②① |④-⑤-|
65
口②①口 |①---|
口口口口 |②---|
口口口口
口口口口

③⑤⑤口
口④④口
口口口口 |③---|
口口口口 |④-⑤-|
66
③口口③ |----|
口口口口 |①---|
口②①口 |②---|
口口口口 |③---|
67
③口口③ |----|
口口口口 |①---|
①口口② |②---|
口口口口 |③---|
68
口口口口 |①---|
口口口② |----|
口口①③ |②---|
口口口口 |③---|
69
④④④④ |①---|
口③口口 |②---|
口②②口 |③---|
口①①① |④---|

不確定度: 0

最終更新:2015年07月26日 19:16