うらもからだも落花微塵
Nanako

ADVANCED

Level: 7
BPM: 158
Notes: 542

1
口口口口 |----|
口口口口 |----|
口口口口 |----|
口口口口 |----|
2
口口口口 |①-②-|
⑤①①⑤ |--③-|
口④④口 |--④-|
③②②③ |--⑤-|
3
①②口口 |--①-|
口③④口 |②-③-|
口口⑤⑥ |④-⑤-|
口口口⑦ |⑥-⑦-|
4
口①①口 |①-②-|
⑤③③⑤ |--③-|
口④④口 |--④-|
口②②口 |--⑤-|
5
口口口口 |----|
口口口口 |①---|
口口口口 |----|
①口口① |----|
6
①⑥⑥⑦ |①-②③|
⑧口口② |④-⑤-|
⑤⑨③口 |⑥---|
口口口④ |⑦-⑧⑨|
7
口③③口 |①-②-|
口口口口 |③---|
口口口②
①口口口

口口口口
口口口口
⑤口口⑦ |④-⑤-|
⑥⑥④④ |⑥-⑦-|
8
①①③③ |①-②-|
②口④口 |③-④-|
⑤⑤⑦⑦ |⑤-⑥-|
⑥口⑧口 |⑦-⑧-|
9
①①③③ |①-②-|
②口④口 |③-④-|
⑤⑤口⑦ |⑤-⑥-|
⑥⑧⑧口 |⑦-⑧-|
10
①⑥⑥⑦ |①-②③|
⑧口②口 |④-⑤-|
⑤⑨③口 |⑥---|
口口口④ |⑦-⑧⑨|
11
口③③口 |①-②-|
口口口口 |③---|
口口口②
①口口口

口口口口
口口口口
⑤口口⑦ |④-⑤-|
⑥⑥④④ |⑥-⑦-|
12
①①③③ |①-②-|
②口④口 |③-④-|
⑤⑤⑦⑦ |⑤-⑥-|
⑥口⑧口 |⑦-⑧-|
13
②②②② |①-②-|
①口口① |----|
口③③口 |--③-|
口口口口 |----|
14
口口口口 |①---|
口口口口 |--②-|
①③口口 |③---|
②①④口 |--④-|
15
口口口⑥ |①---|
口口⑤口 |--②-|
口④口① |③-④-|
③口口② |⑤-⑥-|
16
①③口④ |①---|
②①④口 |--②-|
口口口口 |③---|
口口口口 |④---|
17
②③口口 |①-②-|
口④口口 |③-④-|
口口口①
口口①口

口口口口
口口⑤口
口口⑥⑦ |⑤-⑥-|
口口口⑧ |⑦-⑧-|
18
口口口口 |①---|
口口口口 |--②-|
①③口口 |③---|
②①④口 |--④-|
19
③口口口 |①---|
口③口口 |②---|
②口④① |③---|
口②口口 |④---|
20
口口口口 |①---|
口口④口 |----|
口③口口 |②-③-|
②口口① |④---|
21
⑧⑦口① |①-②-|
口⑥⑤口 |③-④-|
口口④③ |⑤-⑥-|
口口口② |⑦-⑧-|
22
口口口口 |①---|
口口口口 |--②-|
①③口口 |③---|
②①④口 |--④-|
23
口口口⑥ |①---|
口口⑤口 |--②-|
口④口① |③-④-|
③口口② |⑤-⑥-|
24
①③口④ |①---|
②①④口 |--②-|
口口口口 |③---|
口口口口 |④---|
25
②③口口 |①-②-|
口④口口 |③-④-|
口口口①
口口①口

口口口口
口口⑤口
口口⑥⑦ |⑤-⑥-|
口口口⑧ |⑦-⑧-|
26
口口口口 |①---|
口口口口 |--②-|
①③口口 |③---|
②①④口 |--④-|
27
③口口口 |①---|
口③口口 |②---|
②口④① |③---|
口②口口 |④---|
28
②口口口 |①---|
③②口口 |----|
口③口口 |②---|
口口口① |③---|
29
口口口③ |①-②-|
口口④口 |③-④-|
①口口②
口①②口

口口⑤口
口口口⑥
⑦口口口 |⑤-⑥-|
口口口口 |--⑦-|
30
口⑤⑤口 |①-②-|
口口④口 |③-④-|
口③口口 |----|
②①口口 |⑤---|
31
③口口口 |①-②-|
口④口口 |③-④-|
②口口①
口②①口

口⑥口口
⑤口口口
口口口⑦ |⑤-⑥-|
口口口口 |--⑦-|
32
⑤口口⑤ |①-②-|
口④口口 |③-④-|
口口③口 |----|
口口①② |⑤---|
33
口口③口 |①-②-|
口口口④ |③-④-|
①口口②
口①②口

口口口⑥
口口⑤口
⑦口口口 |⑤-⑥-|
口口口口 |--⑦-|
34
⑦⑤口口 |①-②-|
⑥口④口 |③-④-|
口③口口 |--⑤-|
②①口口 |⑥-⑦-|
35
⑦口③⑥ |①-②-|
口⑧⑤④ |③-④-|
②口口① |⑤-⑥-|
口②①口 |⑦-⑧-|
36
口口口口 |----|
口口口口 |①---|
①①①① |----|
口①①口 |----|
37
口口口口 |①---|
口口口口 |--②-|
①③口口 |③---|
②①④口 |--④-|
38
口口口⑥ |①---|
口口⑤口 |--②-|
口④口① |③-④-|
③口口② |⑤-⑥-|
39
①③口④ |①---|
②①④口 |--②-|
口口口口 |③---|
口口口口 |④---|
40
②③口口 |①-②-|
口④口口 |③-④-|
口口口①
口口①口

口口口口
口口⑤口
口口⑥⑦ |⑤-⑥-|
口口口⑧ |⑦-⑧-|
41
口口口口 |①---|
口口口口 |--②-|
①③口口 |③---|
②①④口 |--④-|
42
③口口口 |①---|
口③口口 |②---|
②口④① |③---|
口②口口 |④---|
43
口口口口 |①---|
口口③口 |----|
口②口口 |--②-|
口口口① |③---|
44
⑧⑦口① |①-②-|
口⑥⑤口 |③-④-|
口口④③ |⑤-⑥-|
口口口② |⑦-⑧-|
45
口口口口 |①---|
口口口口 |--②-|
①③口口 |③---|
②①④口 |--④-|
46
口口口⑥ |①---|
口口⑤口 |--②-|
口④口① |③-④-|
③口口② |⑤-⑥-|
47
①③口④ |①---|
②①④口 |--②-|
口口口口 |③---|
口口口口 |④---|
48
②③口口 |①-②-|
口④口口 |③-④-|
口口口①
口口①口

口口口口
口口⑤口
口口⑥⑦ |⑤-⑥-|
口口口⑧ |⑦-⑧-|
49
口口口口 |①---|
口口口口 |--②-|
①③口口 |③---|
②①④口 |--④-|
50
③口口口 |①---|
口③口口 |②---|
②口④① |③---|
口②口口 |④---|
51
②口口口 |①---|
③②口口 |----|
口③口口 |②---|
口口口① |③---|
52
口口口口 |①--②|
口口口口 |--③-|
①口⑥② |-④--|
③①⑤④ |⑤-⑥-|
53
口口口口 |①--②|
①口⑥② |--③-|
③①⑤④ |-④--|
口口口口 |⑤-⑥-|
54
①口⑥② |①--②|
③①⑤④ |--③-|
口口口口 |-④--|
口口口口 |⑤-⑥-|
55
口口口口 |①-②-|
口④⑧口 |③-④-|
⑤⑦③① |⑤-⑥-|
⑥⑤①② |⑦-⑧-|
56
②口口① |①--②|
⑥②口口 |--③-|
③⑤口口 |-④--|
④③口口 |⑤-⑥-|
57
口口口① |①---|
口②①口 |②---|
③⑤②口 |③---|
④③口口 |④-⑤-|
58
②口口口 |①---|
口②①③ |----|
口口③口 |②---|
口口口口 |③---|
59
口口口口 |①---|
口③口口 |----|
①口②口 |----|
口①口口 |②-③-|
60
①口口② |①--②|
口口②⑥ |--③-|
口口⑤③ |-④--|
口口③④ |⑤-⑥-|
61
①口口口 |①---|
口①②口 |②---|
口②⑤③ |③---|
口口③④ |④-⑤-|
62
口口口⑤ |①---|
口①口口 |②-③-|
②④口口 |④---|
③②口口 |⑤---|
63
口口口口 |①---|
口口口口 |----|
口口口① |----|
口口①口 |----|
64
口口口口 |----|
口口口口 |----|
口口口口 |----|
口口口口 |----|
65
①⑥⑥⑦ |①-②③|
⑧口口② |④-⑤-|
⑤⑨③口 |⑥---|
口口口④ |⑦-⑧⑨|
66
口③③口 |①-②-|
口口口口 |③---|
口口口②
①口口口

口口口口
口口口口
⑤口口⑦ |④-⑤-|
⑥⑥④④ |⑥-⑦-|
67
①①③③ |①-②-|
②口④口 |③-④-|
⑤⑤⑦⑦ |⑤-⑥-|
⑥口⑧口 |⑦-⑧-|
68
①①③③ |①-②-|
②口④口 |③-④-|
⑤⑤口⑦ |⑤-⑥-|
⑥⑧⑧口 |⑦-⑧-|
69
①⑥⑥⑦ |①-②③|
⑧口②口 |④-⑤-|
⑤⑨③口 |⑥---|
口口口④ |⑦-⑧⑨|
70
口③③口 |①-②-|
口口口口 |③---|
口口口②
①口口口

口口口口
口口口口
⑤口口⑦ |④-⑤-|
⑥⑥④④ |⑥-⑦-|
71
①①③③ |①-②-|
②口④口 |③-④-|
⑤⑤⑦⑦ |⑤-⑥-|
⑥口⑧口 |⑦-⑧-|
72
②②②② |①-②-|
①口口① |----|
口口口口 |----|
口口口口 |----|
73
①①③③ |①-②-|
②口④口 |③-④-|
⑤⑤⑦⑦ |⑤-⑥-|
⑥口⑧口 |⑦-⑧-|
74
②②②② |①-②-|
①口口① |----|
口口口口 |----|
口口口口 |----|
75
②②②② |①-②-|
口口口口 |----|
口口口口 |----|
①口口① |----|


不确定度: 0

タグ:

+ タグ編集
  • タグ:

このサイトはreCAPTCHAによって保護されており、Googleの プライバシーポリシー利用規約 が適用されます。

最終更新:2012年11月10日 13:58