女言葉の消失
Sota Fujimori

ADVANCED

Level: 7
BPM: 136
Notes: 556

1
口口口口 |----|
口口口口 |----|
口口口口 |----|
口口口口 |----|
2
口⑤⑤口 |①-②-|
口③口口 |③--④|
口②口口 |----|
④①口口 |⑤---|
3
⑤口口⑤ |①-②-|
口④④③ |-③--|
口口①口 |④---|
口口②口 |⑤---|
4
口口口口 |①-②-|
①口口口 |③---|
⑥②口⑦ |④-⑤-|
④口③⑤ |⑥-⑦-|
5
口口口口 |①-②-|
口口口① |③---|
口口②口
口③口口

④口口④
⑥口口⑥
⑤口口⑤ |④-⑤-|
⑦口口⑦ |⑥-⑦-|
6
④口口④ |--①-|
口②①口 |②---|
口口口口 |③---|
③口口③ |④---|
7
口⑦口口 |①-②-|
口①⑥口 |③---|
口⑤②口 |④-⑤-|
口口④③ |⑥-⑦-|
8
口口口口 |①-②-|
口口口① |③---|
⑦口②⑥ |④-⑤-|
⑤③口④ |⑥-⑦-|
9
口口口口 |①-②-|
①口口口 |③---|
口②口口
口口③口

⑤口口④
口⑥⑥口
口⑦⑦口 |④-⑤-|
口口口口 |⑥-⑦-|
10
⑤口口⑤ |--①-|
①口口② |②-③-|
③口口④ |④---|
口口口口 |⑤---|
11
口口⑦口 |①-②-|
口⑥①口 |③---|
口②⑤口 |④-⑤-|
③④口口 |⑥-⑦-|
12
口口口口 |①-②③|
口口口① |-④⑤-|
口口口口
④⑤③②

口口口口
口⑥口口
口口⑦口 |⑥-⑦-|
口口口⑧ |⑧---|
13
④④④④ |①---|
①口②② |②---|
①口口口 |③---|
①口口③ |④---|
14
口⑤⑤口 |①-②-|
⑥口口⑦ |③-④-|
③④②① |⑤---|
口口口口 |⑥-⑦-|
15
③⑦⑧⑥ |--①-|
口④①口 |②③-④|
②口口⑤ |-⑤⑥-|
口口口口 |⑦-⑧-|
16
口口口口 |--①-|
口①④口 |②-③-|
口⑤②口 |④-⑤-|
⑥口口③ |⑥---|
17
口③③口 |①---|
④口口④ |②--③|
②口口① |----|
口②①口 |④---|
18
口⑤⑤口 |①-②-|
⑦口口⑥ |③-④-|
①②④③ |⑤---|
口口口口 |⑥-⑦-|
19
⑥⑧⑦③ |--①-|
口①④口 |②③-④|
⑤口口② |-⑤⑥-|
口口口口 |⑦-⑧-|
20
口口口口 |--①-|
口④①口 |②-③-|
口②⑤口 |④-⑤-|
③口口⑥ |⑥---|
21
口③③口 |①---|
④口口④ |②--③|
②口口① |----|
口②①口 |④---|
22
口④③② |①-②-|
口口口口 |③-④-|
①口口①
口口口口

口口口口
口口⑤口
口⑧口⑥ |⑤-⑥-|
口口⑦口 |⑦-⑧-|
23
①口口口 |①--②|
②口口口 |--③-|
③口口口 |--④-|
口④⑤口 |⑤---|
24
①②③口 |--①-|
口④⑥口 |②-③-|
口⑦⑤口 |④-⑤-|
口口口口 |⑥-⑦-|
25
口⑤④口 |①--②|
口口口③ |--③-|
口口口② |--④-|
口口口① |⑤---|
26
口口口口 |--①-|
①口⑤口 |②-③-|
②④⑥口 |④-⑤-|
③口⑦口 |⑥-⑦-|
27
③⑤⑥口 |①-②③|
口④④口 |--④-|
②口口口 |-⑤-⑥|
口①口口 |----|
28
口口口口 |--①-|
口⑤口① |②-③-|
口⑥④② |④-⑤-|
口⑦口③ |⑥-⑦-|
29
口④⑤口 |①--②|
③口口③ |--③-|
②口口② |-④-⑤|
①口口① |----|
30
①③②① |①---|
①口④① |----|
口⑤⑤口 |②③-④|
口口口口 |---⑤|
31
口②③口 |----|
口①口口 |①-②③|
口④④口 |----|
口口口口 |-④--|
32
①口口① |①-②-|
②③⑥② |--③-|
口⑤④口 |④-⑤-|
口口口口 |⑥---|
33
口①②口 |①②-③|
③口口口 |-④-⑤|
④口口口
⑤口口口

口口⑦⑦
口口⑦⑦
口口⑥⑥ |⑥---|
口口⑥⑥ |⑦---|
34
口①口口 |①---|
⑥②③⑥ |②-③-|
⑤口口⑤ |--④-|
④口口④ |⑤-⑥-|
35
①②②① |①-②-|
口③③口 |③-④-|
⑦④④⑦ |⑤---|
⑥⑤⑤⑥ |⑥-⑦-|
36
⑤②②口 |①---|
①③③① |②-③-|
口④④口 |④---|
口口口口 |--⑤-|
37
口②②① |①---|
③口口③ |②---|
④口口④ |③--④|
⑤口口⑤ |--⑤-|
38
①①①① |----|
口④④口 |①---|
口③③口 |--②-|
口②②口 |③-④-|
39
②①①② |①-②-|
③口口③ |③-④-|
④⑦⑦④ |⑤---|
⑤⑥⑥⑤ |⑥-⑦-|
40
②口口② |①---|
③①①③ |②-③-|
口口口口
口口口口

⑥⑤⑤口
口口口口
④口口④ |④--⑤|
口口口口 |--⑥-|
41
⑦口口① |①-②-|
②⑥⑤③ |③-④-|
④⑥⑤口 |⑤--⑥|
口口口口 |--⑦-|
42
口口口② |①---|
①口口③ |②-③-|
口口口口
口口口口

口口口口
④⑤⑥口
④⑤⑥口 |--④-|
口口口口 |⑤-⑥-|
43
口④③② |①-②-|
口口口① |③-④-|
口口口①
口④③②

⑤口口口
口⑦口⑦
口⑥口⑥ |⑤---|
⑤口口口 |⑥-⑦-|
44
口①口① |①---|
②口②口 |②-③-|
③口③口
口口口口

口口口⑤
口口口口
口口口口 |④---|
④口④口 |--⑤-|
45
①②②口 |①---|
③口口③ |②---|
④口口④ |③--④|
⑤口口⑤ |--⑤-|
46
②口口① |①---|
③⑥⑤④ |②-③-|
口⑥⑤④ |--④-|
口口口口 |⑤-⑥-|
47
②③④口 |①-②-|
①口口口 |③-④-|
①口口口
②③④口

口口口⑤
⑦口⑦口
⑥口⑥口 |⑤---|
口口口⑤ |⑥-⑦-|
48
①口①口 |①---|
口②口② |②-③-|
口③口③
口口口口

口⑤⑤⑥
口口口口
口口口口 |④--⑤|
口④口④ |--⑥-|
49
①口口口 |①-②-|
③⑤⑥② |③-④-|
口⑤⑥④ |⑤--⑥|
口口口口 |----|
50
口①①口 |①---|
②③口口 |--②-|
④⑤口口 |③-④-|
⑥口口口 |⑤-⑥-|
51
口④③② |①---|
⑤⑥口口 |②-③-|
口口口口 |④---|
口①口口 |⑤-⑥-|
52
口②口口 |①---|
口口①口 |--②-|
口口口口
口口口口

口口⑤口
口③⑥口
口④口口 |③-④-|
口口口口 |⑤-⑥-|
53
口口口口 |①---|
③口口② |②---|
③口①② |③-④-|
口⑥⑤④ |⑤-⑥-|
54
②②②② |①---|
口口④③ |②-③-|
口口⑥⑤ |④-⑤-|
①口口⑦ |⑥-⑦-|
55
②③④口 |①---|
口口⑥⑤ |②-③-|
口口口口 |④---|
口口①口 |⑤-⑥-|
56
口口②口 |①---|
口①口口 |--②-|
口口口口
口口口口

口⑤口口
口⑥③口
口口④口 |③-④-|
口口口口 |⑤-⑥-|
57
口⑤⑤口 |①---|
②④④③ |②---|
②①口③ |③---|
口口口口 |④-⑤-|
58
口口口口 |①-②-|
口④口口 |③--④|
①②③口 |----|
口口口口 |----|
59
①③口口 |①---|
①口③口 |②---|
②口④口 |③---|
②④口口 |④---|
60
口口口口 |①-②-|
①口口口 |③---|
⑥②口⑦ |④-⑤-|
④口③⑤ |⑥-⑦-|
61
口口口口 |①-②-|
口口口① |③---|
口口②口
口③口口

⑦口口⑦
口⑤④口
口⑥⑥口 |④-⑤-|
口口口口 |⑥-⑦-|
62
④口口④ |--①-|
口②①口 |②---|
口口口口 |③---|
③口口③ |④---|
63
口口口口 |①-②-|
④①口口 |③---|
⑤口②口 |④--⑤|
⑥口口③ |--⑥-|
64
口口口口 |①-②-|
口口口① |③---|
⑦口②⑥ |④-⑤-|
⑤③口④ |⑥-⑦-|
65
口口口口 |①-②-|
①口口口 |③---|
口②口口
口口③口

⑦口口⑦
口④⑤口
口⑥⑥口 |④-⑤-|
口口口口 |⑥-⑦-|
66
⑤口口⑤ |--①-|
①口口② |②-③-|
③口口④ |④---|
口口口口 |⑤---|
67
⑤⑤⑤⑤ |①-②-|
口口①口 |③---|
④②口④ |④---|
③口口口 |⑤---|
68
口口口口 |①-②③|
①口口口 |-④⑤-|
口口口口
②③⑤④

口口口口
口口⑥口
口⑦口口 |⑥-⑦-|
⑧口口口 |⑧---|
69
④④④④ |①---|
②②口① |②---|
口口口① |③---|
③口口① |④---|

不確定度: 0

最終更新:2015年07月26日 19:16