overcomplexification
かめりあ

BASIC

Level: 4
BPM: 190
Notes: 314

1
口口口口 |----|
口口口口 |----|
口口口口 |----|
口口口口 |----|
2
口口口口 |①---|
口口口口 |----|
口口口口 |----|
②口口① |②---|
3
口口口口 |----|
口③口口 |①---|
口①②口 |②---|
口口口口 |③---|
4
②口口① |①---|
口口口口 |----|
口口口口 |----|
口口口口 |②---|
5
口口口口 |----|
口①①口 |--①-|
口口口口 |----|
口口口口 |----|
6
口口口口 |①---|
口口口口 |----|
口口口口 |----|
②口口① |②---|
7
口口口口 |----|
口③口口 |①---|
口①②口 |②---|
口口口口 |③---|
8
口口③② |①---|
口口①口 |--②-|
口口口口 |----|
口口口口 |③---|
9
②①口口 |--①-|
口口口口 |----|
口口口口 |②---|
口口口口 |----|
10
口口口口 |①---|
口口口口 |----|
口口口口 |----|
②口口① |②---|
11
口口口口 |----|
口③口口 |①---|
口①②口 |②---|
口口口口 |③---|
12
②口口① |①---|
口口口口 |----|
口口口口 |----|
口口口口 |②---|
13
口口口口 |----|
口①①口 |--①-|
口口口口 |----|
口口口口 |----|
14
口口口口 |①---|
口口口口 |----|
口口口口 |----|
②口口① |②---|
15
口口口口 |----|
口口口口 |①---|
口①②口 |②---|
口口口口 |----|
16
口口口口 |①---|
口①①口 |----|
口口口口 |----|
口口口口 |----|
17
口口口口 |----|
口口口口 |----|
口口口口 |----|
口口口口 |----|
18
口口口口 |①---|
⑤③②④ |--②-|
口①①口 |③---|
口口口口 |④-⑤-|
19
口口口口 |①-②-|
口口口口 |③-④-|
②口口① |⑤---|
④口⑤③ |----|
20
口口③② |①---|
口口③② |----|
口①①口 |②---|
口口口口 |--③-|
21
②①口口 |----|
②①口口 |①---|
口口口口 |--②-|
口口口口 |----|
22
口口口口 |①---|
⑤③②④ |--②-|
口①①口 |③---|
口口口口 |④-⑤-|
23
口口口口 |①-②-|
口口口口 |③-④-|
②口口① |⑤---|
④口⑤③ |----|
24
口口口口 |①---|
口口口口 |②---|
①②③④ |③---|
口口口口 |④---|
25
口口口口 |①---|
①②③④ |②---|
口口口口 |③---|
口口口口 |④---|
26
口口口口 |①---|
⑤③②④ |--②-|
口①①口 |③---|
口口口口 |④-⑤-|
27
口口口口 |①-②-|
口口口口 |③-④-|
②口口① |⑤---|
④口⑤③ |----|
28
口口③② |①---|
口口③② |----|
口①①口 |②---|
口口口口 |--③-|
29
②①口口 |----|
②①口口 |①---|
口口口口 |--②-|
口口口口 |----|
30
口口口口 |①---|
③口①③ |②---|
口②②口 |----|
口口口口 |③---|
31
口口口口 |----|
口口口口 |①---|
口口口口 |----|
口①①口 |----|
32
口口口口 |①---|
①口口① |----|
口口口口 |----|
口口口口 |----|
33
口口口口 |----|
口口口口 |----|
口口口口 |----|
口口口口 |----|
34
口口口口 |①---|
口口口口 |----|
口口②① |②---|
口口口口 |----|
35
口口口口 |①---|
口口口口 |----|
口①口口 |----|
口口口口 |----|
36
口口口口 |①---|
口口口口 |----|
①②口口 |②---|
口口口口 |----|
37
口口口口 |①---|
口口口口 |----|
口口①口 |----|
口口口口 |----|
38
口口口口 |①---|
口口口口 |----|
口口②① |②---|
口口口口 |----|
39
口口口口 |①---|
口口口口 |----|
口①口口 |----|
口口口口 |----|
40
口②口口 |①---|
口①口口 |--②-|
口口口口 |----|
口口口口 |----|
41
口口②口 |①---|
口口①口 |--②-|
口口口口 |----|
口口口口 |----|
42
口口口口 |①---|
口口口口 |----|
口口②① |②---|
口口口口 |----|
43
口口口口 |①---|
口口口口 |----|
口①口口 |----|
口口口口 |----|
44
口口口口 |①---|
口口口口 |----|
①②口口 |②---|
口口口口 |----|
45
口口口口 |①---|
口口口口 |----|
口口①口 |----|
口口口口 |----|
46
口口口口 |①---|
口口口口 |----|
口口②① |②---|
口口口口 |----|
47
口口口口 |①---|
口口口口 |----|
口①口口 |----|
口口口口 |----|
48
口②口口 |①---|
口①口口 |--②-|
口口口口 |----|
口口口口 |----|
49
口口②口 |①---|
口口①口 |--②-|
口口口口 |----|
口口口口 |----|
50
口口口口 |①---|
口口口口 |----|
口①①口 |----|
口口口口 |----|
51
口口口口 |----|
口口口口 |----|
口口口口 |----|
口口口口 |----|
52
①②③④ |①---|
口口口口 |②---|
口口口口 |③---|
口口口口 |④---|
53
口口口口 |①---|
口口口① |②---|
口口口② |③---|
口口④③ |④---|
54
口口口口 |①---|
口口口口 |----|
口①①口 |----|
口口口口 |----|
55
口口口口 |----|
口口口口 |----|
口口口口 |----|
口口口口 |----|
56
④③②① |①---|
口口口口 |②---|
口口口口 |③---|
口口口口 |④---|
57
口口口口 |①---|
①口口口 |②---|
②口口口 |③---|
③口口口 |----|
58
口口口口 |①---|
口口口口 |----|
口口口口 |----|
②口口① |②---|
59
口口口口 |----|
口③口口 |①---|
口①②口 |②---|
口口口口 |③---|
60
②口口① |①---|
口口口口 |----|
口口口口 |----|
口口口口 |②---|
61
口口口口 |----|
口①①口 |--①-|
口口口口 |----|
口口口口 |----|
62
口口口口 |①---|
口口口口 |----|
口口口口 |----|
②口口① |②---|
63
口口口口 |----|
口③口口 |①---|
口①②口 |②---|
口口口口 |③---|
64
口口③② |①---|
口口①口 |--②-|
口口口口 |----|
口口口口 |③---|
65
②①口口 |--①-|
口口口口 |----|
口口口口 |②---|
口口口口 |----|
66
口口口口 |①---|
口①①口 |----|
口①①口 |----|
口口口口 |----|
67
口口口口 |----|
口口口口 |----|
口口口口 |----|
口口口口 |----|
68
口口口口 |①---|
口②②口 |----|
口①①口 |②---|
口口口口 |----|
69
口③③口 |①---|
②口口② |----|
①口口① |②---|
口口口口 |③---|
70
口④⑤口 |①---|
口口③③ |②---|
口口②② |③---|
口口①① |④-⑤-|
71
口⑤④口 |①---|
③③口口 |②---|
②②口口 |③---|
①①口口 |④-⑤-|
72
口口口口 |①---|
口口口口 |②---|
口口②①
口口②①

口口口口
口口口口
④③口⑤ |③---|
口③口口 |④-⑤-|
73
①②口口 |①---|
①②口口 |②---|
口口口口
口口口口

口口③口
⑤口③④
口口口口 |③---|
口口口口 |④-⑤-|
74
口口口口 |①---|
口口⑤口 |②---|
口④③③ |③---|
②②①① |④-⑤-|
75
①①②② |①---|
③③④口 |②---|
口⑤口口 |③---|
口口口口 |④-⑤-|
76
口口口③ |①---|
口④口③ |②---|
②口⑤① |③---|
②口口① |④-⑤-|
77
口口口口 |①---|
④口口⑤ |----|
②口口③ |②-③-|
口①①口 |④-⑤-|
78
口①①口 |①---|
口②②口 |②---|
口③③口 |③---|
⑤口口④ |④-⑤-|
79
①口口① |①---|
②口口② |②---|
③口口③ |③---|
口⑤④口 |④-⑤-|
80
口口口口 |----|
①①①① |①---|
口②②口 |②---|
④口口③ |③-④-|
81
①口口① |①---|
②口口② |②---|
③口口③ |③---|
口⑤④口 |④-⑤-|
82
口④①口 |①--②|
口⑤②口 |--③-|
口⑥③口 |④--⑤|
口口口口 |--⑥-|
83
口④④① |①--②|
口口口② |--③-|
口口口③ |④---|
口口口口 |----|
84
口⑧⑦口 |①-②-|
口⑥⑤口 |③-④-|
口④③口 |⑤-⑥-|
口②①口 |⑦-⑧-|
85
口口口① |①-②-|
②口口⑦ |③-④-|
⑥口口③ |⑤-⑥-|
④口口⑤ |⑦---|
86
口口口口 |①---|
口①①口 |----|
口①①口 |----|
②口口口 |②---|
87
口口口口 |----|
口③口口 |①---|
口①②口 |②---|
口口口口 |③---|
88
②口口① |①---|
口口口口 |----|
口口口口 |----|
口口口口 |②---|
89
口口口口 |----|
口①①口 |--①-|
口口口口 |----|
口口口口 |----|

不確定度: 0

最終更新:2015年07月26日 19:13