overcomplexification
かめりあ

ADVANCED

Level: 8
BPM: 190
Notes: 599

1
口口口口 |----|
口口口口 |----|
口口口口 |----|
口口口口 |----|
2
口口口口 |①---|
口口口口 |----|
口口②口 |----|
口口①口 |②---|
3
口口口口 |----|
①口口② |①-②-|
③口口④ |③-④-|
口⑤口口 |⑤---|
4
口口口口 |①---|
口口口口 |----|
口①口口 |----|
口口②口 |②---|
5
口口口口 |----|
口口①口 |--①-|
口口口口 |----|
口口口口 |----|
6
口口口口 |①---|
口口口口 |----|
口口②口 |----|
口口①口 |②---|
7
口口口口 |----|
①口⑥② |①-②-|
③⑤口④ |③-④-|
口口口口 |⑤-⑥-|
8
口①口口 |①---|
口②口口 |--②-|
口③口口 |----|
口口口口 |③---|
9
口口口口 |--①-|
口口口口 |----|
口口②口 |②---|
口①口口 |----|
10
口口口口 |①---|
口口口口 |----|
口口②口 |----|
①①①① |②---|
11
口口口口 |----|
①口口② |①-②-|
③口口④ |③-④-|
口⑤口口 |⑤---|
12
口口口口 |①---|
口口口口 |----|
口①口口 |----|
口口②口 |②---|
13
口口口口 |----|
口口①口 |--①-|
口口口口 |----|
口口口口 |----|
14
口口口口 |①---|
口口口口 |----|
口口②口 |----|
口口①口 |②---|
15
口口口口 |----|
①口口② |①-②-|
③口口④ |③-④-|
口口口口 |----|
16
口口口口 |①---|
口①①口 |----|
口①①口 |----|
口口口口 |----|
17
口①④口 |①-②-|
口⑤②口 |③-④-|
口③⑥口 |⑤-⑥-|
⑦口口⑦ |⑦---|
18
③口口② |①---|
①⑤④口 |--②-|
①口口① |③---|
口口口口 |④-⑤-|
19
口口口口 |①-②-|
⑥口口⑥ |③-④-|
口②①口 |⑤---|
口④③⑤ |⑥---|
20
③③口口 |①-②-|
口①②口 |③---|
口口口口
口口口口

口口口口
⑧⑨口口
④⑤⑥⑦ |④⑤⑥⑦|
口口口口 |--⑧⑨|
21
③④⑤⑥ |①②--|
口口①② |③④⑤⑥|
口⑦⑦口 |--⑦-|
口口口口 |----|
22
③口口② |①---|
口⑤④口 |--②-|
口口口口 |③---|
①①①口 |④-⑤-|
23
口口口口 |①-②-|
⑥口口⑥ |③-④-|
口②①口 |⑤---|
口④③⑤ |⑥---|
24
⑦①④⑥ |①-②-|
⑦①④⑥ |③-④-|
⑤③②⑧ |⑤-⑥-|
⑤③②⑧ |⑦-⑧-|
25
⑦①④⑥ |①-②-|
⑦①④⑥ |③-④-|
⑤③②口 |⑤-⑥-|
⑤③②口 |⑦---|
26
口③②口 |①---|
⑤①口④ |--②-|
口口①口 |③---|
口口口① |④-⑤-|
27
口口口口 |①-②-|
⑥口口⑥ |③-④-|
②口口① |⑤---|
④口⑤③ |⑥---|
28
口口口口 |①---|
口口口口 |----|
①①①①
口口口口

口口口口
口口口口
⑥⑦口口 |②③④⑤|
②③④⑤ |--⑥⑦|
29
口⑦⑦口 |①②--|
③④⑤⑥ |③④⑤⑥|
口口①② |--⑦-|
口口口口 |----|
30
⑥⑥⑥口 |①-②-|
口④⑤口 |③---|
口②①口 |④-⑤-|
口③③③ |⑥---|
31
口口口口 |①---|
②⑤⑤② |②---|
①④④① |③---④-|
口③③口 |--⑤---|
32
口①①口 |①---|
口口口口 |----|
口口③口 |--②-|
口②②口 |--③-|
33
⑥口口③ |①---|
口①①口 |②---|
④口口⑤ |③-④-|
②口口② |⑤-⑥-|
34
口口口口 |①---|
③①①⑤ |--②-|
口④⑥口 |③-④-|
口口②口 |⑤-⑥-|
35
⑤④③② |----|
口口口口 |①---|
口口口口 |----|
口①①口 |②③④⑤|
36
口口口③ |①---|
口④⑤① |--②-|
口口口③ |--③-|
口②②口 |④-⑤-|
37
口口口口 |----|
⑫⑪⑩⑨ |①②③④|
⑧⑦⑥⑤ |⑤⑥⑦⑧|
④③②① |⑨⑩⑪⑫|
38
口口口① |①---|
口口口口 |--②-|
口④③⑥ |③-④-|
②口口⑤ |⑤-⑥-|
39
①口口口 |----|
②口口口 |----|
口口口口 |----|
口口口口 |①-②-|
40
口口④口 |①-②-|
口口口③ |③-④-|
口口②口 |----|
口⑤⑥① |--⑤⑥|
41
③口口口 |--①-|
口②口口 |②-③-|
①口口口 |----|
⑦⑥⑤④ |④⑤⑥⑦|
42
口④③口 |①---|
口口⑥⑤ |--②-|
口②口① |③-④-|
口口口口 |⑤-⑥-|
43
口⑥⑤口 |----|
口⑧⑦口 |①-②-|
④③②① |③-④-|
④③②① |⑤⑥⑦⑧|
44
②④⑤③ |①---|
②口口① |--②-|
口口口口 |--③-|
口口口口 |④-⑤-|
45
口⑦⑥口 |----|
口⑤④口 |----|
口③②口 |①-②③|
①口口① |④⑤⑥⑦|
46
口口口① |①---|
⑤⑥④③ |--②-|
口口口口 |③-④-|
②口口口 |⑤-⑥-|
47
口口⑤口 |----|
口⑥口口 |①-②-|
④③②① |③-④-|
④③②① |⑤-⑥-|
48
④口口③ |①-②-|
②口口① |③-④-|
口口口口 |----|
口⑤⑥口 |--⑤⑥|
49
口口口③ |--①-|
②口口① |②-③-|
口口口口 |----|
口口口口 |----|
50
口口口② |①---|
口①①③ |②---|
口口口口 |----|
口口口口 |③---|
51
口口口口 |----|
口口口口 |①---|
口口口① |----|
口口口② |②---|
52
①④⑥⑦ |①②③-|
②⑤口⑧ |-④⑤-|
③口口⑨ |-⑥-⑦|
⑩口口口 |⑧⑨-⑩|
53
⑥口⑧口 |-①②-|
⑦口口口 |③④-⑤|
口①③口 |-⑥⑦-|
口②④⑤ |⑧---|
54
口口口② |①---|
口①①③ |②---|
口口口口 |----|
口口口口 |③---|
55
口口口口 |----|
口口口口 |①---|
口口口① |----|
口口口② |②---|
56
①④⑥⑦ |①②③-|
②⑤口⑧ |-④⑤-|
③口口⑨ |-⑥-⑦|
⑩口口口 |⑧⑨-⑩|
57
口口口口 |-①②-|
口口口口 |③④-⑤|
口①③口 |----|
口②④⑤ |----|
58
口口口口 |①---|
口口口口 |----|
口②口口 |----|
口①口口 |②---|
59
口口口口 |----|
②口口① |①-②-|
④口口③ |③-④-|
口口⑤口 |⑤---|
60
口口口口 |①---|
口口口口 |----|
口口①口 |----|
口②口口 |②---|
61
口口口口 |----|
口①口口 |--①-|
口口口口 |----|
口口口口 |----|
62
口口口口 |①-②-|
口口口口 |③-④-|
⑦⑧⑥⑤ |⑤-⑥-|
③④②① |⑦-⑧-|
63
⑦⑧⑥⑤ |①-②-|
③④②① |③-④-|
口口口口 |⑤-⑥-|
口口口口 |⑦-⑧-|
64
口⑧⑦口 |①-②-|
口⑥⑤口 |③-④-|
口④③口 |⑤-⑥-|
口②①口 |⑦-⑧-|
65
⑧口口⑦ |①-②-|
⑥口口⑤ |③-④-|
④口口③ |⑤-⑥-|
②口口① |⑦-⑧-|
66
口口口口 |①---|
口口口口 |----|
口①①口 |----|
口口口口 |----|
67
口口口口 |----|
口口口口 |----|
口口口口 |----|
口口口口 |----|
68
④口口① |①--②|
⑤口口② |--③-|
⑥口口③ |④--⑤|
口口口口 |--⑥-|
69
口⑥①口 |①--②|
口⑤②口 |-③④-|
口③④口 |⑤-⑥-|
口口口口 |----|
70
口口③口 |①--②|
口口③① |--③-|
②口口口
口②口①

⑥口口⑤
④④口口
口口口口 |-④--|
⑤口口⑥ |⑤-⑥-|
71
⑤①口⑥ |①--②|
口口④② |--③-|
③①④口 |-④--|
⑥③②⑤ |⑤-⑥-|
72
⑥②①⑤ |①--②|
口②口③ |--③-|
④④口① |-④--|
⑤口③⑥ |⑤-⑥-|
73
口③口口 |①--②|
①③口口 |--③-|
口口②②
口①口口

口口④口
口口口④
口口口口 |-④--|
⑧⑦⑥⑤ |⑤⑥⑦⑧|
74
口口口① |①--②|
②口①口 |--③-|
口②③③
口口口口

⑤④口⑥
口④口口
口口口口 |-④--|
⑥口口⑤ |⑤-⑥-|
75
⑥口④⑤ |①--②|
③口②② |--③-|
①③④口 |-④--|
⑤①口⑥ |⑤-⑥-|
76
口④⑤⑤ |①--②|
口②③③ |--③-|
④⑥口① |④--⑤|
⑥②①口 |--⑥-|
77
①口口口 |①--②|
②口口③ |--③-|
③口口②
口口口①

口口口口
口④④口
口口口口 |④---|
⑤⑥⑦⑧ |⑤⑥⑦⑧|
78
①③口口 |①--②|
③口口口 |--③-|
口①②②
口口口口

⑥口④⑤
口口④口
口口口口 |-④--|
⑤口口⑥ |⑤-⑥-|
79
⑤④口⑥ |①--②|
口口口① |--③-|
②④③③ |-④--|
⑥②①⑤ |⑤-⑥-|
80
⑥口④⑤ |①--②|
①①④② |--③-|
③口口口 |-④--|
⑤③②⑥ |⑤-⑥-|
81
口④④口 |①--②|
②口口② |--③-|
③①①③ |-④--|
⑧⑦⑥⑤ |⑤⑥⑦⑧|
82
②口口① |①--②|
④②①③ |--③-|
口④③口 |-④--|
⑥⑤⑤⑥ |⑤-⑥-|
83
口④③口 |①--②|
④②①③ |--③-|
②口口① |-④--|
口口口口 |----|
84
口口口口 |①-②-|
口⑧⑥口 |③-④-|
⑦④②⑤ |⑤-⑥-|
③口口① |⑦-⑧-|
85
⑦④②⑤ |①-②-|
③⑧⑥① |③-④-|
口口口口 |⑤-⑥-|
口口口口 |⑦-⑧-|
86
口口口口 |①---|
口口口口 |----|
口口②口 |----|
①①①① |②---|
87
口口口口 |----|
①口口② |①-②-|
③口口④ |③-④-|
口⑤口口 |⑤---|
88
口口口口 |①---|
口口口口 |----|
口①口口 |----|
口口②口 |②---|
89
口口口口 |----|
口口①口 |--①-|
口口口口 |----|
口口口口 |----|

不確定度: 0

最終更新:2015年07月26日 19:13