Niflheimr
Qrispy Joybox

BASIC

Level: 5
BPM: 186
Notes: 294

1
口口口口 |----|
口口口口 |----|
口口口口 |----|
口口口口 |----|
2
口口口口 |①---|
口①①口 |----|
口口口口 |②---|
③②口口 |③---|
3
口口口口 |①---|
口口口口 |②---|
④③②① |③---|
口口口口 |④---|
4
口口②① |①---|
口口④③ |②---|
口口口口 |③---|
口口口口 |④---|
5
口口口口 |①---|
①②口口 |②---|
③口口口 |③---|
口口口口 |----|
6
①口口口 |①---|
口②口口 |②---|
口口③口 |③---|
口口口④ |④---|
7
口口口④ |①---|
口口③口 |②---|
口②口口 |③---|
①口口口 |④---|
8
口①口口 |①---|
口口口② |②---|
口③口口 |③---|
口口口④ |④---|
9
口口④口 |①---|
③口口口 |②---|
口口②口 |③---|
①口口口 |④---|
10
口口口口 |①---|
口①①口 |----|
口口口口 |----|
口口口口 |----|
11
口口口口 |①---|
口①①口 |----|
口口口口 |----|
口口口口 |----|
12
口口口口 |①---|
口口口口 |----|
口②②口 |②---|
口①①口 |----|
13
口②②口 |①---|
口①①口 |----|
口口口口 |②---|
口口口口 |----|
14
①口口① |①---|
口口口口 |----|
口口口口 |----|
口口口口 |----|
15
口口口口 |①---|
口④④口 |②---|
口①②③ |③---|
口口口口 |④---|
16
①口口① |①---|
口口②口 |----|
口口口口 |----|
口口口口 |②---|
17
口①口口 |①---|
②口口口 |②---|
口③口口 |③---|
④口口口 |④---|
18
口口口④ |①---|
口口③口 |②---|
口口口② |③---|
口口①口 |④---|
19
口口口口 |①---|
①②③④ |②---|
口口口口 |③---|
口口口口 |④---|
20
口口口口 |①---|
口②口口 |----|
①口口口 |----|
口口口口 |②---|
21
口口口口 |①---|
口口口口 |----|
口口②① |----|
口口口口 |②---|
22
口口口口 |①---|
口口口口 |----|
口②口口 |----|
①口口口 |②---|
23
口口口口 |①---|
口口口口 |----|
口口口口 |----|
口口②① |②---|
24
口口口口 |①---|
口口口口 |----|
口口口口 |----|
①②口口 |②---|
25
口③①口 |①---|
口口口口 |②---|
口④②口 |③---|
口口口口 |④---|
26
口口口① |①---|
口③④口 |②---|
口口口② |③---|
口口口口 |④---|
27
①②③④ |①---|
口口口口 |②---|
口口口口 |③---|
口口口口 |④---|
28
口口口口 |①---|
①口口② |----|
口口口口 |----|
口口口口 |②---|
29
口口口口 |①---|
②口口口 |----|
口口①口 |②---|
口口口口 |----|
30
口②①① |①---|
口④③③ |②---|
口口口口 |③---|
口口口口 |④---|
31
口口口口 |①---|
口口口口 |②---|
口②①① |③---|
口④③口 |④---|
32
③口①① |①---|
口②口口 |----|
口口口口 |②---|
口口口口 |③---|
33
口④口口 |①---|
①口③口 |②---|
②口口口 |③---|
口口口口 |④---|
34
口口④口 |①---|
口①口③ |②---|
口②口口 |③---|
口口口口 |④---|
35
口④口口 |①---|
③口①口 |②---|
口口②口 |③---|
口口口口 |④---|
36
口口口口 |①---|
口口口① |----|
口③②口 |②---|
口口口口 |③---|
37
口口口口 |①---|
口③②口 |----|
口口口口 |②---|
口①①口 |③---|
38
口①①口 |①---|
口口口口 |----|
口③②口 |②---|
口口口口 |③---|
39
口口口口 |①---|
口②③① |----|
口口口① |②---|
口口口口 |③---|
40
口口口口 |①---|
①口口口 |----|
①③②口 |②---|
口口口口 |③---|
41
口口口口 |①---|
口口口口 |②---|
口口口口 |③---|
口③②① |----|
42
口②口口 |①---|
口口①口 |----|
口口口口 |②---|
口口口口 |----|
43
口口口口 |①---|
口口口口 |----|
口口①口 |②---|
口②口口 |----|
44
①①②口 |①---|
③③④口 |②---|
口口口口 |③---|
口口口口 |④---|
45
口口口口 |①---|
口口口口 |②---|
①①②口 |③---|
③③④口 |④---|
46
①①口② |①---|
③③口④ |②---|
口口口口 |③---|
口口口口 |④---|
47
口口口口 |①---|
口口口口 |②---|
①①口② |③---|
③④口口 |④---|
48
口口口口 |①---|
口口口口 |----|
口②口口 |②---|
口口①① |----|
49
口口口口 |①---|
口②口口 |----|
口口①口 |②---|
口口口口 |----|
50
口口口口 |①---|
口口①口 |----|
口②口口 |②---|
口口口口 |----|
51
口口口口 |①---|
口②口口 |----|
口口①口 |②---|
口口口口 |----|
52
口口口口 |①---|
口口①① |----|
口②口口 |②---|
口口口口 |----|
53
口口口口 |①---|
口②口口 |----|
口口①① |②---|
口口口口 |----|
54
口口口口 |①---|
口口①① |----|
②②口口 |②---|
口口口口 |----|
55
口口口口 |①---|
口②②口 |----|
口口①① |②---|
口口口口 |----|
56
①①①① |①---|
口口口口 |----|
口口口口 |----|
口口口口 |----|
57
口口口口 |①---|
④①①口 |②---|
口②②口 |③---|
口③③口 |④---|
58
④③②① |①---|
口口口① |②---|
口口口口 |③---|
口口口口 |④---|
59
④③②① |①---|
口口口口 |②---|
口口口口 |③---|
口口口口 |④---|
60
口口口口 |①---|
口口口口 |②---|
①口口口 |③---|
①②③④ |④---|
61
口口口口 |①---|
口口口口 |②---|
口口口口 |③---|
①②③④ |④---|
62
口口口口 |①---|
口④③口 |②---|
口②①① |③---|
口口口口 |④---|
63
口口口口 |①---|
口口口口 |②---|
口④③口 |③---|
口②①① |④---|
64
口②①① |①---|
口④③③ |②---|
口口口口 |③---|
口口口口 |④---|
65
口口口口 |①---|
口口口口 |②---|
口口①① |③---|
②③④口 |④---|
66
④③②① |①---|
口口口① |②---|
口口口口 |③---|
口口口口 |④---|
67
④③②① |①---|
口口口口 |②---|
口口口口 |③---|
口口口口 |④---|
68
口口口口 |①---|
口口口口 |②---|
①口口口 |③---|
①②③④ |④---|
69
口口口口 |①---|
口口口口 |②---|
口口口口 |③---|
①②③④ |④---|
70
口口口口 |①---|
口③④口 |②---|
①①②口 |③---|
口口口口 |④---|
71
口口口口 |①---|
口口口口 |②---|
口③④口 |③---|
①①②口 |④---|
72
①①②口 |①---|
③③④口 |②---|
口口口口 |③---|
口口口口 |④---|
73
口口口口 |①---|
口口口口 |②---|
①①②口 |③---|
③③④口 |④---|
74
口口口口 |①---|
口①①口 |----|
口口口口 |----|
口口口口 |----|
75
口口口口 |①---|
口口口口 |----|
口①①口 |----|
口口口口 |----|
76
口①①口 |①---|
②口口② |----|
口口口口 |②---|
口口口口 |----|
77
口口口口 |①---|
口口口口 |----|
口①①口 |②---|
口②②口 |----|
78
口口口口 |①---|
口口口口 |----|
口口口口 |----|
①口口① |----|

不確定度: 0

最終更新:2015年07月26日 19:12