Niflheimr
Qrispy Joybox

ADVANCED

Level: 8
BPM: 186
Notes: 488

1
口口口口 |----|
口口口口 |----|
口口口口 |----|
口口口口 |----|
2
口口口② |①---|
口③口口 |----|
口口口④ |②---③-|
口①①口 |--④---|
3
①口口口 |①---②-|
口口②④ |--③---|
③⑤口口 |④---⑤-|
口口⑥口 |--⑥---|
4
⑤口④口 |①---②-|
①③⑥口 |③-④---|
⑦口②口 |⑤---⑥-|
口口口口 |--⑦---|
5
口口口口 |①---②-|
口口口① |--③---|
口②口口 |④---|
④口③口 |----|
6
口③口⑤ |----①-|
口口②口 |--②---|
口①口④ |③---④-|
口口口口 |--⑤---|
7
①口②口 |①---②-|
口③口⑧ |③-④-⑤-|
口⑦④口 |⑥---⑦-|
口⑤口⑥ |--⑧---|
8
①口口口 |①---②-|
口⑤②口 |--③---|
③口口⑥ |④---⑤-|
口口④口 |--⑥---|
9
口口口口 |①---②-|
⑤口④⑥ |--③---|
口③口口 |④---⑤-|
口①口② |--⑥---|
10
口口口口 |①---|
口口②口 |----|
口口口口 |②---|
口①①口 |----|
11
口口口口 |①---|
口②口口 |----|
口口口口 |②---|
口①①口 |----|
12
口口口口 |①---|
口口口口 |----|
口口②② |②---|
口①①口 |----|
13
口口口口 |①---|
①①口口 |----|
口②②口 |②---|
口口口口 |----|
14
①①①① |①---|
口口口口 |----|
口口口口 |----|
口口口口 |----|
15
①④④① |①---|
②口口② |②---|
③口口③ |③---|
口口口口 |④---|
16
口口口口 |①---|
口③②口 |----|
口⑤④口 |----|
口①①口 |②③④⑤|
17
口④⑤口 |①---②-|
⑥口口口 |--③---|
②口口③ |④---⑤-|
口口①口 |--⑥---|
18
口口口口 |①---②-|
口③②① |--③---|
④⑤⑥口 |④---⑤-|
口口口口 |--⑥---|
19
口口口口 |①---②-|
口⑤④口 |--③---|
口口⑥口 |④---⑤-|
口③②① |--⑥---|
20
口口口口 |①---|
口口口口 |----|
口①口口
口口口口

②口口口
口④③口
口⑥⑤口 |②---|
口口口口 |③④⑤⑥|
21
口口口② |①---|
口③④口 |----|
口⑤⑥口 |②---|
口口①口 |③④⑤⑥|
22
口②口口 |①---|
④口口③ |----|
⑥口口⑤ |②---|
口①口口 |③④⑤⑥|
23
口口②口 |①---|
③口口④ |----|
⑤口口⑥ |②---|
口口口① |③④⑤⑥|
24
口口口② |①---|
口口口口 |----|
③④口口 |②---|
①口口口 |③-④-|
25
口口口口 |①-②-|
口口口口 |③-④-|
⑧⑦⑥⑤ |⑤-⑥-|
①②③④ |⑦-⑧-|
26
⑧⑦⑥⑤ |①-②-|
①②③④ |③-④-|
口口口口 |⑤-⑥-|
口口口口 |⑦-⑧-|
27
口口口口 |①-②-|
口口口口 |③-④-|
⑧⑦⑥⑤ |⑤-⑥-|
④③②① |⑦-⑧-|
28
口口口口 |①---|
口口口口 |----|
口口口口 |--②-|
②③④① |③-④-|
29
口口④口 |①---②-|
⑤③口口 |--③---|
口①②⑥ |④---⑤-|
口口口口 |--⑥---|
30
①口口口 |①-②-|
口口②⑥ |③-④-|
⑤⑤⑦口 |⑤---⑥-|
口③口④ |--⑦---|
31
④③②① |①-②-|
①①⑥⑤ |③-④-|
⑧⑦口口 |⑤-⑥-|
口口口口 |⑦-⑧-|
32
口口口口 |①---|
⑤口口口 |②---|
口口口④ |③---|
②③①① |④-⑤-|
33
⑥口①口 |①-②-|
⑦口②⑤ |③-④-|
⑧口③口 |⑤-⑥-|
口口④口 |⑦-⑧-|
34
口②⑥口 |①-②-|
口③⑦口 |③-④-|
口④⑧⑤ |⑤-⑥-|
①口口口 |⑦-⑧-|
35
口②口口 |①-②-|
⑥③口口 |③-④-|
⑦④口口 |⑤-⑥-|
⑧⑤①口 |⑦-⑧-|
36
口口口口 |①---|
③④⑤⑥ |②---|
口口①口 |③-④-|
口口口② |⑤-⑥-|
37
⑥⑤④③ |①---|
口口口口 |②---|
①口口口 |③-④-|
②口口口 |⑤-⑥-|
38
口口口口 |①---|
口口口① |②---|
③④⑤⑥ |③-④-|
口口口② |⑤-⑥-|
39
②口口口 |①---|
⑥⑤④③ |②---|
口口口口 |③-④-|
①口口口 |⑤-⑥-|
40
口口口口 |①---|
口口⑤④ |②---|
口口口① |③---|
③口口② |④-⑤-|
41
口④③口 |①-②-|
②①⑦口 |③-④-|
口⑥口口 |⑤---⑥-|
口口⑤口 |--⑦---|
42
口口口口 |①---②-|
③口口口 |--③---|
⑦⑥口② |④-⑤-|
①口⑤④ |⑥-⑦-|
43
④③口口 |①-②-|
⑤⑥②① |③-④-|
口口⑦⑧ |⑤-⑥-|
口口口口 |⑦-⑧-|
44
口口口口 |①-②-|
口口口口 |③-④-|
⑤⑥⑧⑦ |⑤-⑥-|
①②④③ |⑦-⑧-|
45
⑤⑥⑧⑦ |①-②-|
①②④③ |③-④-|
口口口口 |⑤-⑥-|
口口口口 |⑦-⑧-|
46
口口口口 |①-②-|
口口口口 |③-④-|
⑤⑥⑧⑦ |⑤-⑥-|
①②④③ |⑦-⑧-|
47
口口口口 |①-②-|
①②④③ |③-④-|
⑤⑥口口 |⑤-⑥-|
口口⑦⑧ |⑦-⑧-|
48
口口口口 |①---|
口口口口 |----|
口口口口 |----|
①①口口 |----|
49
口口口口 |①---|
①①口口 |----|
口口口口 |----|
口口口口 |----|
50
口口口口 |①---|
口口口口 |----|
①①口口 |----|
口口口口 |----|
51
①①口口 |①---|
口②③口 |----|
口④口口 |----|
口口口口 |-②③④|
52
②口口③ |①---|
④口口口 |----|
口口①口 |----|
口口口口 |-②③④|
53
口②口口 |①---|
口口③① |----|
口④口口 |----|
口口口口 |-②③④|
54
口口③口 |①---|
②④口② |----|
②口⑤② |②---|
口口①口 |-③④⑤|
55
口口口口 |①---|
②口口② |----|
②口口② |②---|
口①口口 |----|
56
①①①① |①---|
口口口口 |----|
口口口口 |----|
口口口口 |----|
57
①⑩⑩② |①②③④|
③⑨口④ |⑤⑥⑦⑧|
⑤口口⑥ |⑨---|
⑦口口⑧ |⑩---|
58
①口口① |①---|
口③②口 |②③④⑤|
口⑤④口
口口口口

⑨口口口
口口口⑧
⑦口口口 |⑥-⑦-|
口口⑥口 |⑧-⑨-|
59
口①②口 |--①-|
③口口口 |--②-|
④口口⑥ |--③④|
⑤口口口 |⑤-⑥-|
60
口口口⑧ |----|
口①②口 |①②③④|
⑦③④口 |⑤-⑥-|
口⑤口⑥ |⑦-⑧-|
61
口口①口 |--①-|
口②口③ |--②-|
口口口④ |--③④|
⑥口口⑤ |⑤-⑥-|
62
⑩⑧⑦⑨ |①-②-③-|
⑫⑥⑤⑪ |④-⑤-⑥-|
口④③口 |⑦-⑧-⑨-|
口②①口 |⑩-⑪-⑫-|
63
口⑫⑪口 |①-②-③-|
口⑩⑨口 |④-⑤-⑥-|
⑥⑧⑦⑤ |⑦-⑧-⑨-|
④②①③ |⑩-⑪-⑫-|
64
口口口口 |①-②-|
口口口口 |③-④-|
⑦⑧⑥⑤ |⑤-⑥-|
③④②① |⑦-⑧-|
65
⑧⑦⑥⑤ |①-②-|
③④②① |③-④-|
口口口口 |⑤-⑥-|
口口口口 |⑦-⑧-|
66
⑨口口口 |①---|
口③②⑧ |②③④⑤|
口⑤④① |⑥-⑦-|
⑦口⑥① |⑧-⑨-|
67
口①②口 |--①-|
⑤口口口 |--②-|
④口口⑥ |--③④|
③口口口 |⑤-⑥-|
68
口口口⑧ |----|
口①②口 |①②③④|
⑦③④口 |⑤-⑥-|
口⑤口⑥ |⑦-⑧-|
69
口口①口 |--①-|
口②口③ |--②-|
⑥口口④ |--③④|
口口口⑤ |⑤-⑥-|
70
⑩⑧⑦⑨ |①-②-③-|
⑫⑥⑤⑪ |④-⑤-⑥-|
口④③口 |⑦-⑧-⑨-|
口②①口 |⑩-⑪-⑫-|
71
口口口口 |①-②-|
口口口口 |③-④-|
口⑦⑥⑤ |⑤-⑥-|
④③②① |⑦---|
72
口口口口 |①-②-|
口口口口 |③-④-|
⑦⑧⑥⑤ |⑤-⑥-|
③④②① |⑦-⑧-|
73
⑦⑧⑥⑤ |①-②-|
③④②① |③-④-|
口口口口 |⑤-⑥-|
口口口口 |⑦-⑧-|
74
口口口口 |①---|
口口口口 |----|
口口口① |----|
口口①口 |----|
75
口口口口 |①---|
口口口口 |----|
①口口口 |----|
口①口口 |----|
76
口口①① |①---|
②②口口 |----|
口口口口 |②---|
口口口口 |----|
77
口口口口 |①---|
口口口口 |----|
口口①① |②---|
②②口口 |----|
78
口口口口 |①---|
口①①口 |----|
口①①口 |----|
口口口口 |----|

不確定度: 0

最終更新:2015年07月26日 19:12