In The Breeze
96 & Sota ft. Mayumi Morinaga

BASIC

Level: 3
BPM: 123-142
Notes: 205

BPM: 123
1
口口口口 |----|
口口口口 |----|
口口口口 |----|
①口口口 |①---|
2
口口口口 |①---|
口口①口 |----|
口口口口 |②---|
口口②口 |----|
3
口口口口 |①---|
口①口口 |----|
口口口口 |②---|
口②口口 |----|
4
口口口口 |①---|
①口口① |----|
口口口口 |----|
口口口口 |----|
5
口口口口 |----|
口口口口 |----|
口口口口 |----|
口口口口 |----|

BPM: 142
6
口口口口 |①---|
口④①口 |②---|
口②③口 |③---|
口口口口 |④---|
7
口口口口 |①---|
①②口① |----|
①口口① |----|
口口口口 |②---|
8
口口②口 |①---|
口口口口 |----|
口口①口 |②---|
口口口口 |----|
9
口口口口 |①---|
口口口口 |----|
口①口口 |----|
口口口口 |----|
10
口口口口 |①---|
口口口口 |----|
口口口口 |----|
口口口① |----|
11
口②口口 |①---|
口口口口 |----|
①口口口 |----|
口口口口 |②---|
12
口口口② |①---|
口口③口 |----|
口口①口 |②---|
口口口口 |③---|
13
口口口口 |①---|
口口口口 |----|
口①口口 |----|
口口口② |②---|
14
口②②口 |①---|
口口口口 |--②-|
口①①口 |----|
口口口口 |----|
15
口口口口 |--①-|
②口口② |----|
口口口口 |②---|
①口口① |----|
16
口口口口 |---①|
口①①口 |----|
口①①口 |----|
口口口口 |----|
17
口口口口 |①---|
口口④④ |②---|
口口口口 |③---|
①②③口 |④---|
18
④④口口 |①---|
口口口口 |②---|
口③②① |③---|
口口口口 |④---|
19
口口口口 |①---|
口口①① |----|
②②口口 |②---|
口口口口 |----|
20
口口口口 |①---|
口口口口 |----|
口口口口 |----|
口口①① |----|
21
口口口口 |①---|
④④口口 |②---|
口口口口 |③---|
口③②① |④---|
22
口口④④ |①---|
口口口口 |②---|
①②③口 |③---|
口口口口 |④---|
23
口口口口 |①---|
①①口口 |----|
口口口口 |----|
口口口口 |----|
24
口口口口 |----|
口口口口 |----|
口口口口 |----|
口口口口 |----|
25
口口口口 |①---|
口口口① |----|
口口口① |----|
口口口口 |----|
26
④口口口 |①---|
③口口口 |②---|
②口口口 |③---|
①口口口 |④---|
27
口口口口 |①---|
口口①口 |----|
口口①口
口口口口

口口口口
口口口口
口口②口 |----|
口口口口 |②---|
28
口④口口 |①---|
口③口口 |②---|
口②口口 |③---|
口①口口 |④---|
29
口口口口 |①---|
口口口① |----|
口口口① |----|
口口口口 |----|
30
④口口口 |①---|
③口口口 |②---|
②口口口 |③---|
①口口口 |④---|
31
口口口口 |①---|
口②①口 |----|
口②①口 |②---|
口口口口 |----|
32
口口口口 |①---|
②口口① |----|
②口口① |②---|
口口口口 |----|
33
①①①① |①---|
口口口口 |----|
口口口口 |----|
口口口口 |----|
34
口口口口 |----|
口口口口 |----|
口口口口 |----|
口①口口 |①---|
35
④④口口 |①---|
口口②① |②---|
口③口口 |③---|
口口口口 |④---|
36
口口④④ |①---|
①②口口 |②---|
口口③口 |③---|
口口口口 |④---|
37
口口口口 |①---|
口口①口 |②---|
口②口口 |③---|
口④③口 |④---|
38
口口①① |①---|
口口②② |②---|
口口③③ |③---|
口④口口 |④---|
39
口口④④ |①---|
①②口口 |②---|
口口③口 |③---|
口口口口 |④---|
40
④④口口 |①---|
口口②① |②---|
口③口口 |③---|
口口口口 |④---|
41
口口口口 |①---|
口②①口 |②---|
口④③口 |③---|
口口口口 |④---|
42
②口口② |①---|
口口口口 |--②-|
口口口口 |----|
①口口① |----|
43
口口①口 |①---|
口口②口 |②---|
口口③口 |③---|
口口④口 |④---|
44
口口口口 |①---|
口口口口 |----|
口①口口 |----|
口口口口 |----|
45
口①口口 |①---|
口②口口 |②---|
口③口口 |③---|
口④口口 |④---|
46
口口②口 |①---|
口口口口 |--②-|
口口①口 |----|
口口口口 |----|
47
口口口口 |①---|
①②③④ |②---|
口口口口 |③---|
口口口口 |④---|
48
口口口口 |①---|
口口口口 |----|
口①①口 |----|
口口口口 |----|
49
①③口口 |①---|
口②④口 |②---|
口口口口 |③---|
口口口口 |④---|
50
口口①③ |①---|
口口④② |②---|
口口口口 |③---|
口口口口 |④---|
51
口口口口 |①---|
②①口口 |②---|
口口③④ |③---|
口口口口 |④---|
52
口口口口 |①---|
口口③④ |②---|
②①口口 |③---|
口口口口 |④---|
53
口口③① |①---|
口④②口 |②---|
口口口口 |③---|
口口口口 |④---|
54
③①口口 |①---|
②④口口 |②---|
口口口口 |③---|
口口口口 |④---|
55
口口口口 |①---|
口口①② |②---|
④③口口 |③---|
口口口口 |④---|
56
口口口口 |①---|
口②②口 |--②-|
口口口口 |----|
口①①口 |----|
57
口口口口 |--①-|
②口口② |----|
口口口口 |②---|
①口口① |----|
58
口口口口 |---①|
口①①口 |----|
口①①口 |----|
口口口口 |----|
59
①①②② |--①-|
口口口口 |----|
口口口口 |②---|
口③③口 |--③-|
60
口口口口 |----|
①①①① |--①-|
口口口口 |----|
口口口口 |----|

不確定度: 0

最終更新:2015年12月26日 22:38