千年ノ理
猫叉Master

BASIC

Level: 4
BPM: 153
Notes: 315

1
口口口口 |----|
口口口口 |----|
口口口口 |----|
口口口口 |----|
2
口口口口 |----|
口口口口 |----|
口口口口 |----|
①口口口 |①---|
3
口口①① |①---|
口口口② |--②-|
口③口④ |③---|
口口口口 |--④-|
4
口口口口 |①---|
口口口口 |----|
口口口口 |----|
口①口② |②---|
5
①①口口 |①---|
②口口口 |--②-|
④口③口 |③---|
口口口口 |--④-|
6
口口口口 |①---|
口口口口 |----|
口口口口
口口①口

口口口口
口口口口
口口口口 |----|
口口②口 |②---|
7
①口①口 |①---|
②口口口 |--②-|
④口口③ |③---|
口口口口 |--④-|
8
口口口口 |①---|
口口口口 |----|
口②②口 |②---|
口口口① |----|
9
口口口口 |①---|
口口口口 |----|
口②口② |②---|
口①口① |----|
10
口口口口 |①---|
口①口① |----|
口口口口 |----|
口口口口 |----|
11
①口口口 |①---|
②口口口 |②---|
③口口口 |③---|
④口口口 |④---|
12
④④口口 |①---|
口口口③ |②---|
口口口② |③-④-|
⑤⑤口① |--⑤-|
13
口口口④ |①---|
口口口③ |②---|
口口口② |③---|
口口口① |④---|
14
口口⑤⑤ |①-②-|
口口④④ |--③-|
口口③③ |--④-|
①口②② |--⑤-|
15
口③口④ |①---|
口②口口 |②---|
口口口口 |③---|
口①①口 |④---|
16
口口口口 |①---|
口口口① |----|
口口口口 |②---|
②口口口 |----|
17
口③口④ |①---|
口②口口 |②---|
口①口口 |③---|
口口口口 |④---|
18
口口口口 |①---|
口口口① |----|
口口口口 |②---|
口口口② |----|
19
口口口口 |①---|
口②③④ |----|
①①口口 |--②-|
口口口口 |③-④-|
20
口口口口 |----|
口口口口 |----|
③②①口 |--①-|
口口口口 |②-③-|
21
口口口口 |----|
口口口口 |----|
口口口口 |--①-|
口①②③ |②-③-|
22
口口②② |----|
①③③口 |①---|
口口口口 |②---|
口口口口 |③---|
23
口口口口 |①---|
口口口口 |----|
①①口口 |②---|
口口②口 |----|
24
口口口口 |①---|
口①③口 |----|
口口②口 |②---|
口口口口 |③---|
25
口口①口 |①---|
②口口口 |----|
口口口口 |②---|
口口口口 |----|
26
口口口口 |①---|
口口口口 |②---|
口①②口 |③---|
口③④口 |④---|
27
口口口口 |①---|
②口口③ |②---|
口口口口 |③---|
①口口④ |④---|
28
口口口口 |①---|
②口口③ |②---|
口口口口 |③---|
①口口④ |④---|
29
口②③口 |①---|
口口口口 |②---|
口①④口 |③---|
口口口口 |④---|
30
口②③口 |①---|
口口口口 |②---|
口①④口 |③---|
口口口口 |④---|
31
口口口口 |①---|
②口口③ |②---|
口口口口 |③---|
①口口④ |④---|
32
口口口口 |①---|
②口口③ |②---|
口口口口 |③---|
①口口④ |④---|
33
口②③口 |①---|
口口口口 |②---|
口①④口 |③---|
口口口口 |④---|
34
口②③口 |①---|
口口口口 |②---|
口①④口 |③---|
口口口口 |④---|
35
①①口口 |①---|
②口口口 |--②-|
④口③口 |③---|
口口口口 |--④-|
36
口口口口 |①---|
口口口口 |----|
口口口口 |----|
②口①口 |②---|
37
口口①① |①---|
口口口② |--②-|
口③口④ |③---|
口口口口 |--④-|
38
口口口口 |①---|
口口口口 |----|
口口口口 |----|
口①②口 |②---|
39
①口①口 |①---|
②口口口 |--②-|
④口口③ |③---|
口口口口 |--④-|
40
口口口口 |①---|
口口口口 |----|
口②②口 |②---|
口口口① |----|
41
口口口口 |①---|
口口口口 |----|
口②口② |②---|
口①口① |----|
42
口口口口 |①---|
口①口① |----|
口口口口 |----|
口口②口 |②---|
43
①①口② |①---|
③口⑤口 |②-③-|
⑥口口④ |④---|
口口口口 |⑤-⑥-|
44
口口口口 |①---|
口④口口 |②---|
口③口口 |③---|
口②①口 |④---|
45
②口①① |①---|
口⑤口③ |②-③-|
④口口⑥ |④---|
口口口口 |⑤-⑥-|
46
口口口口 |①---|
口口口口 |②---|
口②口口 |③---|
③①④口 |④---|
47
口①①口 |①---|
口②②口 |----|
口口口口 |②---|
口口口口 |----|
48
口口口口 |①---|
口口口口 |----|
口①①口 |②---|
口②②口 |----|
49
①口口② |①---|
③口口④ |②---|
口口口口 |③---|
口口口口 |④---|
50
口口口口 |①---|
口口口口 |②---|
①口口② |③---|
③口口④ |④---|
51
②③④口 |①---|
口①①口 |②---|
口①①口 |③---|
口口口口 |④---|
52
口口口① |①---|
口口口口 |----|
口口口口 |②---|
口②②口 |----|
53
口口口口 |①---|
口①①口 |②---|
口④③② |③---|
口口口口 |④---|
54
口②②口 |①---|
口口口口 |----|
①口口口 |②---|
口③③口 |③---|
55
②③④口 |①---|
①口口① |②---|
口口口口 |③---|
口口口口 |④---|
56
口口口① |①---|
口口口口 |----|
口口口口 |②---|
口②②口 |----|
57
口口口口 |①---|
口口口口 |②---|
④③②① |③---|
口口口口 |④---|
58
口口口口 |①---|
④②①③ |②---|
口口口口 |③---|
口口口口 |④---|
59
②③④口 |①---|
口①①口 |②---|
口①①口 |③---|
口口口口 |④---|
60
口口口① |①---|
口口口口 |----|
口口口口 |②---|
口②②口 |----|
61
口口口口 |①---|
口口口口 |②---|
④③②① |③---|
口口口口 |④---|
62
口②②口 |①---|
口①①口 |----|
口口口口 |②---|
口③③口 |③---|
63
②③④口 |①---|
①口口① |②---|
口口口口 |③---|
口口口口 |④---|
64
口口口① |①---|
口口口口 |----|
口口口口 |②---|
口②②口 |----|
65
④口口④ |①---|
③口口③ |②---|
②口口② |③---|
①口口① |④---|
66
口②③口 |①---|
口①①口 |----|
口①①口 |②---|
口口口口 |③---|
67
口口口口 |①---|
①口口② |②---|
③口口④ |③---|
口口口口 |④---|
68
口④口口 |①---|
口③口口 |②---|
口②口口 |③---|
口①口口 |④---|
69
口口④口 |①---|
口口③口 |②---|
口口②口 |③---|
口口①口 |④---|
70
④口口口 |①---|
③口口口 |②---|
②口口口 |③---|
①口口口 |④---|
71
口口口④ |①---|
口口口③ |②---|
口口口② |③---|
口口口① |④---|
72
口口④④ |①---|
口③口口 |②---|
口口②口 |③---|
口①口口 |④---|
73
④④口口 |①---|
口口③口 |②---|
口②口口 |③---|
口口①口 |④---|
74
口口④④ |①---|
口③口口 |②---|
口口②口 |③---|
口①口口 |④---|
75
④④口口 |①---|
口口③口 |②---|
口②口口 |③---|
口口①口 |④---|
76
口口口口 |①---|
①口口① |----|
①口口① |----|
口口口口 |----|

不確定度: 0

最終更新:2016年04月18日 01:19