千年ノ理
猫叉Master

ADVANCED

Level: 7
BPM: 153
Notes: 527

1
口口口口 |----|
口口口口 |----|
口口口口 |----|
口口口口 |----|
2
口口口口 |----|
口口口口 |----|
口口口口 |----|
口口①口 |①---|
3
①口⑤② |①---|
⑥④口口 |--②-|
口口③口 |③-④-|
口口口口 |⑤-⑥-|
4
口口口口 |①---|
口④口口 |----|
口口③口 |--②-|
口①口② |③-④-|
5
①口④② |①---|
口⑤口口 |--②-|
口口⑥口 |③-④-|
③口口口 |⑤-⑥-|
6
口口口口 |①---|
口口口口 |----|
口③口口 |----|
口①②口 |②-③-|
7
口⑥口② |①---|
①⑤口口 |--②-|
④口口口 |③-④-|
③口口口 |⑤-⑥-|
8
口口①口 |①-②-|
②口口口 |③-④-|
口口口③
口④口口

口口⑦口
口口口口
口口口口 |⑤---|
口口⑤⑥ |⑥-⑦-|
9
口③口⑦ |①---|
⑥口口口 |②-③-|
口口①⑤ |④-⑤-|
②④口口 |⑥-⑦-|
10
①口口口 |①---|
口口口口 |----|
口口口口 |----|
口口口口 |----|
11
⑩⑤口口 |①-②③|
口⑨⑧⑦ |④-⑤-|
口④③② |⑥-⑦⑧|
①⑥口口 |⑨-⑩-|
12
口⑤⑧⑧ |①-②③|
口口口口 |④-⑤-|
口④③② |⑥-⑦-|
①⑥⑦⑦ |--⑧-|
13
⑩⑤口口 |①-②③|
口⑨⑧⑦ |④-⑤-|
口④③② |⑥-⑦⑧|
①⑥口口 |⑨-⑩-|
14
口⑤⑥口 |①-②③|
口⑦口口 |④-⑤-|
口④③② |--⑥-|
①口口口 |--⑦-|
15
口口口口 |①---|
口口③口 |②---|
①口④① |③---|
①②口① |④---|
16
口①口口 |①---|
②口口口 |--②-|
口口③口 |③---|
④口口口 |④---|
17
口口口口 |①---|
口口③口 |②---|
口口口口 |③---|
口②④① |④---|
18
口口口④ |①-②-|
③口口口 |③-④-|
口口口②
①口口口

⑤口口口
口口口⑥
口口口口 |⑤-⑥-|
⑦⑦口口 |⑦---|
19
口①①口 |①---|
口③③口 |----|
②②口口 |--②-|
口口④④ |③-④-|
20
口口①① |----|
③③口口 |----|
口口口口 |--①-|
口②②口 |②-③-|
21
口口口口 |----|
口②②口 |----|
口口③③ |--①-|
①①口口 |②-③-|
22
①口口① |----|
②口口② |①---|
③口口③ |②---|
口口口口 |③---|
23
口口口③ |①---|
口口④口 |②---|
口口口口 |③---|
①②口① |④---|
24
①⑥②口 |①---|
口口⑤口 |--②-|
口④口口 |③-④-|
口口③口 |⑤-⑥-|
25
②口口口 |----|
口③口口 |①---|
口口口口 |②---|
①口口口 |③---|
26
口④⑥⑤ |①-②-|
⑧⑦③口 |③-④-|
口②口口 |⑤-⑥-|
口口①口 |⑦-⑧-|
27
口⑧⑦口 |①-②-|
口⑥⑤口 |③-④-|
口④③口 |⑤-⑥-|
口②①① |⑦-⑧-|
28
⑩⑨⑧⑦ |①-②-|
⑥口口⑤ |③-④-|
④口口③ |⑤-⑥-|
②口口① |⑦⑧⑨⑩|
29
口⑧⑦口 |①-②-|
口⑥⑤口 |③-④-|
口④③口 |⑤-⑥-|
口②①口 |⑦-⑧-|
30
⑫⑪⑩⑨ |①-②-|
⑧⑦⑥⑤ |③-④-|
④口口③ |⑤⑥⑦⑧|
②口口① |⑨⑩⑪⑫|
31
口⑧⑦口 |①-②-|
口⑥⑤口 |③-④-|
口④③口 |⑤-⑥-|
口②①① |⑦-⑧-|
32
⑩⑨⑧⑦ |①-②-|
⑥口口⑤ |③-④-|
④口口③ |⑤-⑥-|
②口口① |⑦⑧⑨⑩|
33
口⑧⑦口 |①-②-|
口⑥⑤口 |③-④-|
口④③口 |⑤-⑥-|
口②①口 |⑦-⑧-|
34
⑯⑮⑭⑬ |①②③④|
⑫⑪⑩⑨ |⑤⑥⑦⑧|
⑧⑦⑥⑤ |⑨⑩⑪⑫|
④③②① |⑬⑭⑮⑯|
35
口④③口 |①---|
口口⑤口 |--②-|
⑥②口口 |③-④-|
口口口① |⑤-⑥-|
36
口口口口 |①---|
口口④口 |----|
口③口口 |--②-|
②口口① |③-④-|
37
②口口① |①---|
口口⑥③ |--②-|
口⑤口口 |③-④-|
口口④口 |⑤-⑥-|
38
口①口口 |①---|
口口口③ |----|
口口口口 |----|
口②口口 |②-③-|
39
①①⑤口 |①---|
口口②口 |--②-|
口③⑥口 |③-④-|
口口口④ |⑤-⑥-|
40
口④⑦口 |①-②-|
口③口⑤ |③-④-|
②口口口 |⑤---|
①口口⑥ |⑥-⑦-|
41
⑥③口口 |①---|
口⑦口口 |②-③-|
口口①⑤ |④-⑤-|
②④口口 |⑥-⑦-|
42
口口口口 |①---|
口口口口 |----|
口口①口 |----|
口口口② |②---|
43
口④口③ |①---|
①①⑤口 |②-③-|
口⑥口口 |④-⑤-|
②口⑦口 |⑥-⑦-|
44
口口口口 |①---|
③⑥口② |②---|
口口⑤口 |③-④-|
口①口④ |⑤-⑥-|
45
①口口③ |①---|
口⑦口口 |②-③-|
②口④⑥ |④-⑤-|
⑤口口口 |⑥-⑦-|
46
口口①口 |①---|
③口⑤② |②---|
口口口口 |③---|
口④口口 |④-⑤-|
47
①①口② |①---|
⑥口口口 |--②-|
口⑤口③ |③-④-|
口口④口 |⑤-⑥-|
48
⑤口④口 |①-②-|
口③⑦口 |③-④-|
口口②口 |⑤---|
口①口⑥ |⑥-⑦-|
49
口③口口 |①---|
口口口口 |②-③-|
口口口口
②口①口

口口口口
口口口⑤
口⑥口口 |④-⑤-|
口④⑦口 |⑥-⑦-|
50
口口口口 |①---|
①口口口 |----|
口口口口 |----|
②③④⑤ |②③④⑤|
51
①①口口 |①--②|
⑤⑤③③ |③--④|
⑧②④⑥ |⑤-⑥-|
口⑦口口 |⑦-⑧-|
52
②口①口 |①---|
口③口口 |--②-|
口口口口 |③---|
口口⑤④ |--④⑤|
53
口口②② |①---|
③口⑤口 |②---|
口④口口 |③-④-|
口①口⑥ |⑤-⑥-|
54
②口口口 |①---|
口口口口 |--②-|
口口口口
①口口口

口口口口
口③口口
口口口口 |③---|
④④口口 |④---|
55
⑤⑤①① |①--②|
⑧口④⑥ |③--④|
口②口口 |⑤-⑥-|
口⑦③③ |⑦-⑧-|
56
口口①② |①---|
口口③口 |--②-|
口口口口 |③---|
口口口口 |----|
57
口口②口 |----|
③口口口 |①-②-|
⑥口④口 |③-④-|
口⑤口① |⑤-⑥-|
58
③③口① |①--②|
口④②口 |③--④|
口口⑤⑤ |⑤---|
⑥⑥口口 |⑥---|
59
①①口口 |①--②|
⑤⑤③③ |③--④|
⑧②④⑥ |⑤-⑥-|
口⑦口口 |⑦-⑧-|
60
②口①口 |①---|
口③口口 |--②-|
口口口口 |③---|
口口⑤④ |--④⑤|
61
口口②② |①---|
③口⑤口 |②---|
口④口口 |③-④-|
口①口⑥ |⑤-⑥-|
62
②口口口 |①---|
口口口口 |--②-|
口口口口
①口口口

口口口口
口③口口
口口口口 |③---|
④④口口 |④---|
63
⑤⑤①① |①--②|
⑧口④⑥ |③--④|
口②口口 |⑤-⑥-|
口⑦③③ |⑦-⑧-|
64
口口①② |①---|
口口③口 |--②-|
口口口口 |③---|
口口口口 |----|
65
口口②口 |----|
③口口口 |①-②-|
⑥口④口 |③-④-|
口⑤口① |⑤-⑥-|
66
口口⑤① |①-②-|
口⑥②口 |③-④-|
口口⑦③ |⑤-⑥-|
口⑧④口 |⑦-⑧-|
67
⑥①口⑤ |①-②-|
②口口口 |③-④-|
⑧③口⑦ |⑤-⑥-|
④口口口 |⑦-⑧-|
68
口④口口 |①-②-|
⑥⑥③口 |③-④-|
口②⑤⑤ |⑤---|
口口①口 |⑥---|
69
②口①① |①-②-|
⑥口口⑤ |③-④-|
口④③口 |⑤-⑥-|
⑧口口⑦ |⑦-⑧-|
70
口②①口 |①-②-|
⑥口口⑤ |③-④-|
口④③口 |⑤-⑥-|
⑧口口⑦ |⑦-⑧-|
71
口④③口 |①-②-|
口口口口 |③-④-|
⑥②①⑤ |⑤-⑥-|
口口⑦⑦ |⑦---|
72
①②③④ |①--②|
①②③④ |--③-|
口口⑥⑤ |-④--|
口口⑥⑤ |⑤--⑥|
73
口⑤④③ |--①-|
口⑤④③ |-②--|
②①口口 |③--④|
②①口口 |--⑤-|
74
①口口口 |-①--|
①口口口 |②--③|
⑤④③② |--④-|
⑤④③② |-⑤--|
75
口口①① |①--②|
⑤⑤②② |--③-|
⑥⑥③③ |-④--|
口口④④ |⑤--⑥|
76
口口①① |①---|
口口①① |----|
口口口口 |----|
口口口口 |----|

不確定度: 0

最終更新:2016年04月18日 01:19