うらもからだも落花微塵
Nanako

EXTREME

Level: 9
BPM: 158
Notes: 758

1
口口口口 |----|
口口口口 |----|
口口口口 |----|
口口口口 |----|
2
④②②④ |①-②-|
口口口口 |--③-|
口⑤⑤口 |--④-|
③①①③ |--⑤-|
3
③①②口 |--①-|
②口③④ |②-③-|
①⑥⑦⑤ |④-⑤-|
⑦⑤④⑥ |⑥-⑦-|
4
②①①② |①-②-|
③⑤⑤④ |--③-|
口口口口 |--④-|
⑤③④⑤ |--⑤-|
5
①①①① |----|
口口口口 |①---|
口口口口 |----|
口口口口 |----|
6
①口②口 |①--②③④|
口口③① |⑤-⑥-|
口口④口
口⑥⑤口

口⑧口口
⑨⑩⑪口
口口口口 |⑦---|
⑧口口⑦ |⑧--⑨⑩⑪|
7
口口口③ |①-②-|
口口口① |③---|
口口口②
口口口口

口口口口
⑥口口⑦
口④⑤口 |④-⑤-|
⑦⑤④⑥ |⑥-⑦-|
8
①⑦②⑧ |①-②③|
口口③⑨ |④-⑤⑥|
④⑩⑤⑪ |⑦-⑧⑨|
口口⑥⑫ |⑩-⑪⑫|
9
口口③口 |①-②③|
①口②口 |④-⑤⑥|
口口⑥口
④口⑤口

⑩口⑬口
口口⑫⑨
⑪口口⑧ |⑦-⑧⑨|
口⑦口口 |⑩⑪⑫⑬|
10
口②口① |①--②③④|
①③口口 |⑤-⑥-|
口④口口
口⑤⑥口

口口⑧口
口⑪⑩⑨
口口口口 |⑦---|
⑦口口⑧ |⑧--⑨⑩⑪|
11
③口口口 |①-②-|
①口口口 |③---|
②口口口
口口口口

口口口口
⑦口口⑥
口⑤④口 |④-⑤-|
⑥④⑤⑦ |⑥-⑦-|
12
①⑦②⑧ |①-②③|
口口③⑨ |④-⑤⑥|
④⑩⑤⑪ |⑦-⑧⑨|
口口⑥⑫ |⑩-⑪⑫|
13
①③①③ |①-②-|
口口口口 |----|
②③②③ |--③-|
口口口口 |----|
14
②口口口 |①---|
口口①口 |②-③-|
口口③口
口①口①

口口④口
口④口④
口口口⑤ |④---|
口⑥口口 |⑤-⑥-|
15
口口口② |①---|
①口①口 |②-③-|
④④⑥⑥ |④-⑤-|
⑤⑦⑦③ |⑥-⑦-|
16
①①①① |①---|
③口④口 |②-③-|
口③⑤④ |④---|
口⑤口② |⑤---|
17
④②③口 |①-②-|
③①④口 |③-④-|
②口口口
口口口①

口口口口
口口口⑤
口口口⑥ |⑤-⑥-|
⑧⑥⑤⑦ |⑦-⑧-|
18
口①口① |①---|
②口③口 |②-③-|
口口①口
口口口口

口⑥口口
口口口⑤
口④口④ |④---|
口口口口 |⑤-⑥-|
19
④口口口 |①---|
口③口③ |②---|
①口①口 |③---|
口口②口 |④---|
20
口口口② |①---|
③口口⑤ |②---|
口③口口 |③-④-|
④口口① |⑤---|
21
④②③口 |①-②-|
③口④口 |③-④-|
②口口口
口口口①

口口口口
口口口⑤
口口口⑥ |⑤-⑥-|
⑧⑥⑤⑦ |⑦-⑧-|
22
口①口① |①---|
②口③口 |②-③-|
口口①口
口口口口

口⑥口口
口口口⑤
口④口④ |④---|
口口④口 |⑤-⑥-|
23
⑤⑦⑦③ |①---|
④④⑥⑥ |②-③-|
①口①口 |④-⑤-|
口口口② |⑥-⑦-|
24
口口口② |①---|
③口口口 |②-③-|
口③口口
①①①①

口口口口
口口④口
口口⑤④ |④---|
口⑤口口 |⑤---|
25
④②③口 |①-②-|
③①④口 |③-④-|
②口口口
口口口①

口口口口
口口口⑤
口口口⑥ |⑤-⑥-|
⑧⑥⑤⑦ |⑦-⑧-|
26
口①口① |①---|
②口③口 |②-③-|
口口①口
口口口口

口⑥口口
口口口⑤
口④口④ |④---|
口口口口 |⑤-⑥-|
27
④口口口 |①---|
口③口③ |②---|
①口①口 |③---|
口口②口 |④---|
28
口④③② |①---|
④口口③ |②---|
③口口④ |③---|
口③④① |④---|
29
口口口⑥ |①-②-|
口①②⑤ |③④⑤⑥|
④②①口
③口口口

⑦⑧⑨口
口口口口
口⑪⑩口 |⑦⑧⑨-|
口口口口 |--⑩⑪|
30
口口口口 |①②③④|
④⑦⑥⑤ |⑤⑥⑦-|
③⑧⑧② |----|
口口口① |⑧---|
31
⑦⑧⑨⑥ |①-②-|
口②②⑤ |③④⑤⑥|
④⑪⑩口 |⑦⑧⑨-|
③①①口 |--⑩⑪|
32
口口口口 |①②③④|
④⑦⑥⑤ |⑤⑥⑦-|
③⑧⑧② |----|
口口口① |⑧---|
33
口①①③ |①-②-|
口②②④ |③④⑤⑥|
⑤口口口
⑥口口口

口口口口
口⑩⑪口
口口口口 |⑦⑧⑨-|
口⑨⑧⑦ |--⑩⑪|
34
①口口口 |①②③④|
②口口③ |⑤⑥⑦-|
⑤⑥⑦④
口口口口

⑬⑫⑨⑧
口⑪⑩口
口口口口 |--⑧⑨|
口口口口 |⑩⑪⑫⑬|
35
口口口口 |①-②-|
口口口③ |③④⑤⑥|
口②②④
①①⑥⑤

口口口口
⑨⑧⑦口
⑩⑭⑬口 |⑦⑧⑨⑩|
⑪⑫口口 |⑪⑫⑬⑭|
36
①①①① |----|
口口口口 |①---|
口口口口 |----|
口口口口 |----|
37
②口口口 |①---|
口口①口 |②-③-|
口口③口
口①口①

口口④口
口④口④
口口口⑤ |④---|
口⑥口口 |⑤-⑥-|
38
口口口② |①---|
①口①口 |②-③-|
④④⑥⑥ |④-⑤-|
⑤⑦⑦③ |⑥-⑦-|
39
①①①① |①---|
③口④口 |②-③-|
口③⑤④ |④---|
口⑤口② |⑤---|
40
④②③口 |①-②-|
③①④口 |③-④-|
②口口口
口口口①

口口口口
口口口⑤
口口口⑥ |⑤-⑥-|
⑧⑥⑤⑦ |⑦-⑧-|
41
口①口① |①---|
②口③口 |②-③-|
口口①口
口口口口

口⑥口口
口口口⑤
口④口④ |④---|
口口④口 |⑤-⑥-|
42
④口口口 |①---|
口③口③ |②---|
①口①口 |③---|
口口②口 |④---|
43
④口口② |①---|
口口口⑤ |②---|
口口⑤口 |③-④-|
③口口① |⑤---|
44
④②③口 |①-②-|
③口④口 |③-④-|
②口口口
口口口①

口口口口
口口口⑤
口口口⑥ |⑤-⑥-|
⑧⑥⑤⑦ |⑦-⑧-|
45
口①口① |①---|
②口③口 |②-③-|
口口①口
口口口口

口⑥口口
口口口⑤
口④口④ |④---|
口口④口 |⑤-⑥-|
46
⑤⑦⑦③ |①---|
④④⑥⑥ |②-③-|
①口①口 |④-⑤-|
口口口② |⑥-⑦-|
47
口口口② |①---|
③口口口 |②-③-|
口③口口
①①①①

口口口口
口口④口
口口⑤④ |④---|
口⑤口口 |⑤---|
48
④②③口 |①-②-|
③①④口 |③-④-|
②口口口
口口口①

口口口口
口口口⑤
口口口⑥ |⑤-⑥-|
⑧⑥⑤⑦ |⑦-⑧-|
49
口①口① |①---|
②口③口 |②-③-|
口口①口
口口口口

口⑥口口
口口口⑤
口④口④ |④---|
口口④口 |⑤-⑥-|
50
④口口口 |①---|
口③口③ |②---|
①口①口 |③---|
口口②口 |④---|
51
口口口③ |①---|
口②④口 |②---|
口口③口 |③---|
口④口① |④---|
52
口①口口 |①--②|
口口口② |--③-|
③口口口
口口①口

口口口口
④口口口
口⑥⑥⑤ |-④--|
口⑥⑥口 |⑤-⑥-|
53
①口口口 |①--②|
口口口口 |--③-|
口口口口
③口口②

⑤⑥⑥④
口⑥⑥口
口口口口 |-④--|
口口口口 |⑤-⑥-|
54
⑤口⑤口 |①--②|
口⑥口⑥ |--③-|
①口口④ |-④--|
③口口② |⑤-⑥-|
55
口①⑧① |①-②-|
②⑦②⑦ |③-④-|
口③⑥口 |⑤-⑥-|
④⑤④⑤ |⑦-⑧-|
56
⑥口⑥口 |①--②|
口⑤①⑤ |--③-|
④②④② |-④--|
口口③口 |⑤-⑥-|
57
口①④口 |①---|
①口①⑤ |②---|
口①口口 |③---|
③②③② |④-⑤-|
58
口口④口 |①--②|
口⑤①口 |--③-|
口口②口 |④---|
口口③口 |⑤---|
59
口④⑤口 |①--②|
④口⑥口 |--③-|
①口③② |-④--|
口③②口 |⑤-⑥-|
60
口口口口 |①--②|
口口口口 |--③-|
③①③①
口口②口

⑤口⑤口
口④口④
口口口⑥ |-④--|
口口口口 |⑤-⑥-|
61
口①口口 |①---|
①口①口 |②---|
口①口口
口②口②

口口口口
口口⑤⑤
口口⑤④ |③---|
③口③口 |④-⑤-|
62
⑤口②① |①---|
④④口口 |②-③-|
③④口口 |④---|
口口口口 |⑤---|
63
口①①口 |①-②-|
口口口口 |③-④-|
③④③口
②①①口

口口⑦⑧
口⑤⑥口
口口口口 |⑤-⑥-|
口口口口 |⑦-⑧-|
64
⑦⑥口⑧ |①-②-|
口⑤④口 |③-④-|
口②③② |⑤-⑥-|
口口口① |⑦-⑧-|
65
口口②口 |①--②③④|
①口③口 |⑤-⑥-|
口口④①
口⑥⑤口

口⑧口口
⑨⑩⑪口
口口口口 |⑦---|
⑧口口⑦ |⑧--⑨⑩⑪|
66
口口口③ |①-②-|
口口口① |③---|
口口口②
口口口口

口口口口
⑥口口⑦
口④⑤口 |④-⑤-|
⑦⑤④⑥ |⑥-⑦-|
67
①⑦②⑧ |①-②③|
口口③⑨ |④-⑤⑥|
④⑩⑤⑪ |⑦-⑧⑨|
口口⑥⑫ |⑩-⑪⑫|
68
口口③口 |①-②③|
①口②口 |④-⑤⑥|
口口⑥口
④口⑤口

⑩口⑬口
口口⑫⑨
⑪口口⑧ |⑦-⑧⑨|
口⑦口口 |⑩⑪⑫⑬|
69
口②口① |①--②③④|
①③口口 |⑤-⑥-|
口④口口
口⑤⑥口

口口⑧口
口⑪⑩⑨
口口口口 |⑦---|
⑦口口⑧ |⑧--⑨⑩⑪|
70
③口口口 |①-②-|
①口口口 |③---|
②口口口
口口口口

口口口口
⑦口口⑥
口⑤④口 |④-⑤-|
⑥④⑤⑦ |⑥-⑦-|
71
①⑦②⑧ |①-②③|
口口③⑨ |④-⑤⑥|
④⑩⑤⑪ |⑦-⑧⑨|
口口⑥⑫ |⑩-⑪⑫|
72
①口①口 |①-②-|
口口口口 |----|
②口②口 |----|
口口口口 |----|
73
①⑦②⑧ |①-②③|
口口③⑨ |④-⑤⑥|
⑩④⑪⑤ |⑦-⑧⑨|
口口⑫⑥ |⑩-⑪⑫|
74
①口①口 |①-②-|
口口口口 |----|
口②口② |----|
口口口口 |----|
75
①①①口 |①-②-|
口口口口 |----|
②②②口 |----|
口口口口 |----|


不确定度: 0

タグ:

+ タグ編集
  • タグ:

このサイトはreCAPTCHAによって保護されており、Googleの プライバシーポリシー利用規約 が適用されます。

最終更新:2012年11月10日 13:57