ほおずき程度には赤い頭髪
Akhuta

BASIC

Level: 4
BPM: 174
Notes: 327

1
口口口口 |----|
口口口口 |----|
口口口口 |----|
口口口口 |----|
2
口口口口 |①---|
口口口口 |②---|
口口口口 |③---|
①②③④ |④---|
3
口口口口 |①---|
口口口口 |----|
口①①口 |----|
口口口口 |----|
4
①口口① |①---|
口口口口 |----|
口口口口 |②---|
②口口② |----|
5
口①①口 |①---|
口口口口 |----|
口口口口 |②---|
口②②口 |----|
6
①口①口 |①---|
口口口口 |----|
口口口口 |②---|
口②口② |----|
7
口①口① |①---|
口口口口 |----|
口口口口 |②---|
②口②口 |----|
8
①口口① |①---|
口口口口 |----|
口口口口 |②---|
②口口② |----|
9
口①①口 |①---|
口口口口 |----|
口口口口 |②---|
口②②口 |----|
10
口①口① |①---|
口口口口 |----|
口口口口 |②---|
②口②口 |----|
11
口口④口 |①---|
口③口口 |②---|
口口②口 |③---|
口①口口 |④---|
12
①口口① |①---|
口口口口 |----|
口口口口 |②---|
②口口② |----|
13
口①①口 |①---|
口口口口 |----|
口口口口 |②---|
口②②口 |----|
14
口①口① |①---|
口口口口 |----|
口口口口 |②---|
②口②口 |----|
15
①口①口 |①---|
口口口口 |----|
口口口口 |②---|
口②口② |----|
16
①口口① |①---|
口口口口 |----|
口口口口 |②---|
②口口② |----|
17
口①①口 |①---|
口口口口 |----|
口口口口 |②---|
口②②口 |----|
18
④口口④ |①---|
③口口③ |②---|
②口口② |③---|
①口口① |④---|
19
口口口口 |①---|
口③③口 |②---|
口②②口 |③---|
口①①口 |----|
20
①口口口 |①---|
口②口口 |----|
口口口口 |②---|
口口口口 |----|
21
口口口口 |①---|
口口口口 |----|
口口①口 |②---|
口口口② |----|
22
口口口口 |①---|
口口口口 |----|
口②口口 |②---|
口①口口 |----|
23
口②口口 |①---|
口①口口 |----|
口口口口 |②---|
口口口口 |----|
24
口口口① |①---|
口口②口 |----|
口口口口 |②---|
口口口口 |----|
25
口口口口 |①---|
口口口口 |----|
口①口口 |②---|
②口口口 |----|
26
口口口口 |①---|
口口口口 |----|
口口②口 |②---|
口口①口 |----|
27
口口口口 |①---|
口口①口 |----|
口口口口 |----|
口口口口 |----|
28
①①口口 |①---|
口②②口 |----|
口口口口 |②---|
口口口口 |----|
29
口口口口 |①---|
口口口口 |----|
口①①口 |②---|
口口②② |----|
30
口口口口 |①---|
口口口口 |----|
②②口口 |②---|
①①口口 |----|
31
②②口口 |①---|
①①口口 |----|
口口口口 |②---|
口口口口 |----|
32
口口①① |①---|
口②②口 |----|
口口口口 |②---|
口口口口 |----|
33
口口口口 |①---|
口口口口 |----|
口①①口 |②---|
②②口口 |----|
34
口口口口 |①---|
口口口口 |----|
口口②② |②---|
口口①① |----|
35
口口口口 |①---|
口口①① |----|
口口口口 |----|
口口口口 |----|
36
①②③④ |①---|
口口口口 |②---|
口口口口 |③---|
口口口口 |④---|
37
口口口口 |①---|
口①口口 |----|
口③②口 |②---|
口口口口 |③---|
38
口口口口 |①---|
口口口口 |②---|
口口口口 |③---|
④③②① |④---|
39
口口口口 |①---|
口口口口 |----|
口口①口 |----|
口口口口 |----|
40
①②③④ |①---|
口口口口 |②---|
口口口口 |③---|
口口口口 |④---|
41
口口口口 |①---|
口①口口 |----|
口③②口 |②---|
口口口口 |③---|
42
口口口口 |①---|
口口口口 |②---|
口口口口 |③---|
④③②① |④---|
43
口口口口 |①---|
口口口口 |----|
口口①口 |----|
口口口口 |----|
44
①②③④ |①---|
①口口口 |②---|
口口口口 |③---|
口口口口 |④---|
45
口口口口 |①---|
口口口① |----|
口口口口 |----|
口口口口 |----|
46
口口口口 |①---|
口口口口 |②---|
口口口① |③---|
④③②① |④---|
47
口口口口 |①---|
口口口口 |----|
①口口口 |----|
口口口口 |----|
48
④③②① |①---|
口口口① |②---|
口口口口 |③---|
口口口口 |④---|
49
口口口口 |①---|
①口口口 |----|
口口口口 |----|
口口口口 |----|
50
口口口口 |①---|
口口口口 |②---|
①口口口 |③---|
①②③④ |④---|
51
口口口口 |①---|
口口口口 |----|
口口口① |----|
口口口口 |----|
52
口口口口 |①---|
口①口口 |----|
口口口口 |----|
口口口口 |----|
53
①口口① |①---|
口口④口 |②---|
口②口口 |③---|
③口口③ |④---|
54
口①①口 |①---|
口口④口 |②---|
口②口口 |③---|
口③③口 |④---|
55
①口①口 |①---|
口口④口 |②---|
口②口口 |③---|
口③口③ |④---|
56
口①口① |①---|
口口④口 |②---|
口②口口 |③---|
③口③口 |④---|
57
①口口① |①---|
口口④口 |②---|
口②口口 |③---|
③口口③ |④---|
58
口①①口 |①---|
口口④口 |②---|
口②口口 |③---|
口③③口 |④---|
59
口①口① |①---|
口口④口 |②---|
口②口口 |③---|
③口③口 |④---|
60
口口④口 |①---|
口③口口 |②---|
口口②口 |③---|
口①口口 |④---|
61
①口口① |①---|
口口④口 |②---|
口②口口 |③---|
③口口③ |④---|
62
口①①口 |①---|
口口④口 |②---|
口②口口 |③---|
口③③口 |④---|
63
口①口① |①---|
口口④口 |②---|
口②口口 |③---|
③口③口 |④---|
64
①口①口 |①---|
口口④口 |②---|
口②口口 |③---|
口③口③ |④---|
65
①口口① |①---|
口口④口 |②---|
口②口口 |③---|
③口口③ |④---|
66
口①①口 |①---|
口口④口 |②---|
口②口口 |③---|
口③③口 |④---|
67
①口口① |①---|
②口口② |②---|
③口口③ |③---|
④口口④ |④---|
68
口①①口 |①---|
口②②口 |②---|
口③③口 |③---|
口④④口 |④---|
69
①口口① |①---|
口口口口 |----|
口口口口 |----|
口口口口 |----|
70
口口口口 |----|
口口口口 |----|
口口口口 |----|
口口口口 |----|
71
①①口口 |①---|
口口②口 |----|
口③口口 |②---|
口口口口 |③---|
72
口口口口 |①---|
口口口③ |②---|
口口口② |③---|
口口口① |----|
73
口①口口 |①---|
口②口口 |②---|
③口口口 |③---|
口④口口 |④---|
74
口口①口 |①---|
口口②口 |②---|
口口口③ |③---|
口口口口 |----|
75
口口口口 |①---|
口口口口 |②---|
口口口口 |③---|
①②③④ |④---|
76
口口口口 |①---|
口口口口 |②---|
口口口④ |③---|
①②③口 |④---|
77
口口口口 |①---|
口④①口 |②---|
口②③口 |③---|
口口口口 |④---|
78
①口口口 |①---|
②口口口 |②---|
③口口口 |③---|
口口口口 |----|
79
口口口口 |①---|
口口口口 |②---|
口口口① |③---|
④③②口 |④---|
80
口口口口 |①---|
口③④口 |②---|
口①②口 |③---|
口口口口 |④---|
81
口①②③ |①---|
口口口④ |②---|
口口口口 |③---|
口口口口 |④---|
82
口口口口 |①---|
口口口口 |②---|
③②①口 |③---|
口口口口 |----|
83
口口口口 |①---|
口口口口 |②---|
口口口口 |③---|
④③②① |④---|
84
口口口口 |①---|
口口口口 |②---|
④③②① |③---|
口口口口 |④---|
85
口口口口 |①---|
④③②① |②---|
口口口口 |③---|
口口口口 |④---|
86
口口口① |①---|
口口口口 |----|
口口口口 |----|
口口口口 |----|

不確定度: 0

最終更新:2016年04月18日 01:20