ほおずき程度には赤い頭髪
Akhuta

ADVANCED

Level: 8
BPM: 174
Notes: 679

1
口口口口 |----|
口口口口 |----|
口口口口 |----|
口口口口 |----|
2
①口口② |①-②-|
③口口④ |③-④-|
口口口口 |⑤-⑥-|
⑤⑥⑦⑧ |⑦-⑧-|
3
口口口口 |①---|
口①①口 |----|
口口口口 |----|
口口口口 |----|
4
口口口④ |①--②|
口②⑥④ |--③-|
①⑤③口 |④--⑤|
①口口口 |--⑥-|
5
①口口口 |①--②|
①③⑥口 |--③-|
口⑤②④ |④--⑤|
口口口④ |--⑥-|
6
口口口④ |①--②|
口③⑥④ |--③-|
①⑤②口 |④--⑤|
①口口口 |--⑥-|
7
①口口口 |①--②|
①③口口 |--③-|
口口②口 |④-⑤-|
⑦⑥⑤④ |⑥-⑦-|
8
④④①① |①--②|
口⑥③口 |--③-|
口②⑤口 |④--⑤|
口口口口 |--⑥-|
9
口口口口 |①--②|
口⑥③口 |--③-|
口②⑤口 |④--⑤|
④④①① |--⑥-|
10
④④①① |①--②|
口⑥③口 |--③-|
口②⑤口 |④--⑤|
口口口口 |--⑥-|
11
⑤⑦③① |①-②-|
口口口口 |③-④-|
口口口口 |⑤-⑥-|
②④⑧⑥ |⑦-⑧-|
12
口口口④ |①--②|
口②⑥④ |--③-|
①⑤③口 |④--⑤|
①口口口 |--⑥-|
13
①口口口 |①--②|
①③⑥口 |--③-|
口⑤②④ |④--⑤|
口口口④ |--⑥-|
14
口口口④ |①--②|
口③⑥④ |--③-|
①⑤②口 |④--⑤|
①口口口 |--⑥-|
15
①口口口 |①--②|
①③口口 |--③-|
口口②口 |④-⑤-|
⑦⑥⑤④ |⑥-⑦-|
16
④④①① |①--②|
口⑥③口 |--③-|
口②⑤口 |④--⑤|
口口口口 |--⑥-|
17
口口口口 |①--②|
口⑥③口 |--③-|
口②⑤口 |④--⑤|
④④①① |--⑥-|
18
①④④① |①--②|
②⑤⑤② |--③-|
③⑥⑥③ |④--⑤|
口口口口 |--⑥-|
19
①口口① |①--②|
③口口③ |--③-|
③口口③ |----|
②口口② |----|
20
口口口口 |①---|
④①①口 |----|
③①①口 |②--③|
②口口口 |--④-|
21
口口口① |①--②|
口④口② |--③-|
口口口③ |④---|
口口口口 |----|
22
①④①④ |①---|
⑦口口口 |②-③-|
口②③口 |④-⑤-|
⑤口口⑥ |⑥-⑦-|
23
口口①口 |①-②-|
口②口口 |③-④-|
口口③口 |⑤---|
口④⑤口 |----|
24
口口口口 |①---|
口①①④ |----|
口①①③ |②--③|
口口口② |--④-|
25
①口口口 |①--②|
②口④口 |--③-|
③口口口 |④---|
口口口口 |----|
26
①④①④ |①---|
⑦口口口 |②-③-|
口③②⑥ |④-⑤-|
口⑤口口 |⑥-⑦-|
27
口口口口 |----|
口口口口 |----|
⑤⑥⑦⑧ |①②③④|
①②③④ |⑤⑥⑦⑧|
28
口①①口 |①---|
口口⑤⑤ |②---|
口口④④ |③--④|
②口③③ |--⑤-|
29
①①口口 |①--②|
②②口口 |--③-|
③③口口 |④---|
口④④⑤ |⑤---|
30
口①口① |①---|
⑥口口口 |②-③-|
口③②⑤ |--④-|
④口口口 |⑤-⑥-|
31
口口①口 |①-②-|
⑥②口口 |③-④-|
口口③⑦ |⑤-⑥-|
⑧④口⑤ |⑦-⑧-|
32
③④⑤口 |①---|
③④⑤口 |②---|
口口①口 |③--④|
口②①口 |--⑤-|
33
口④口④ |①--②|
口口口口 |--③-|
口③②① |④---|
⑤③②① |⑤---|
34
口口口口 |①---|
口①①① |②-③-|
口口口口
口③②口

④④④口
口口口⑦
口⑥口口 |④-⑤-|
口口口⑤ |⑥-⑦-|
35
口口口口 |①--②|
①⑤①口 |--③-|
口口口③ |④---|
②④②③ |⑤---|
36
①③③② |①---|
④口口④ |②---|
①⑤⑤② |③-④-|
⑥口口⑥ |⑤-⑥-|
37
口口口口 |----|
口口口口 |----|
②口口① |①---|
口②①口 |②---|
38
②③③① |①---|
②④④① |②---|
⑤口口⑤ |③-④-|
⑥口口⑥ |⑤-⑥-|
39
口口口口 |----|
口口口口 |----|
口口口口 |----|
口口口口 |----|
40
⑥口口⑥ |①---|
②⑤⑤① |②---|
④口口④ |③-④-|
②③③① |⑤-⑥-|
41
口②①口 |----|
②口口① |----|
口口口口 |①---|
口口口口 |②---|
42
⑥口口⑥ |①---|
⑤口口⑤ |②---|
②④④① |③-④-|
②③③① |⑤-⑥-|
43
口⑥⑥口 |--①-|
口①口口 |②-③-|
⑤口口④ |④-⑤-|
口③②口 |⑥---|
44
⑤口口⑥ |①-②-|
①口④口 |③-④-|
口③②口 |⑤--⑥|
①口⑦口 |--⑦-|
45
口口口口 |①---|
③①口② |②-③-|
⑤口口④ |④-⑤-|
⑦口口⑥ |⑥-⑦-|
46
④口口⑤ |①-②-|
口⑥③⑦ |③-④-|
口②①口 |⑤--⑥|
口口①口 |--⑦-|
47
②口③口 |①---|
④口⑤口 |②-③-|
⑥口⑦口 |④-⑤-|
口口①口 |⑥-⑦-|
48
⑤口⑥④ |①-②-|
口③口口 |③-④-|
口⑦口② |⑤--⑥|
①①口口 |--⑦-|
49
口①口口 |①---|
口②口③ |②-③-|
④口⑤口 |④-⑤-|
口⑥口⑦ |⑥-⑦-|
50
④①①④ |①---|
⑤③口⑤ |②-③-|
⑥口口⑥ |④--⑤|
口口②口 |--⑥-|
51
口口口口 |①---|
口口口口 |----|
口口口口 |----|
口①①② |②---|
52
口口口① |①---|
口口口口 |----|
口口口口 |----|
②③④⑤ |②③④⑤|
53
①①⑤④ |①--②|
口③口口 |--③-|
口口口② |④--⑤|
口口⑥口 |--⑥-|
54
口口口④ |-①--|
口③⑤口 |②-③-|
①①口口 |④-⑤-|
②口口⑥ |-⑥--|
55
①①⑤④ |①--②|
口口口口 |--③-|
口③口② |④--⑤|
口口⑥口 |--⑥-|
56
④③口口 |-①--|
①①口口 |②-③-|
②口⑤口 |④-⑤-|
⑨⑧⑦⑥ |⑥⑦⑧⑨|
57
④⑤①① |①--②|
口口③口 |--③-|
②口口口 |④--⑤|
口⑥口口 |--⑥-|
58
④口口口 |-①--|
口⑤③口 |②-③-|
口口①① |④-⑤-|
⑥口口② |-⑥--|
59
④⑤①① |①--②|
口口口口 |--③-|
②口③口 |④--⑤|
口⑥口口 |--⑥-|
60
④口③口 |-①--|
口口①① |②-③-|
口口⑤② |④-⑤-|
⑨⑧⑦⑥ |⑥⑦⑧⑨|
61
口④③① |①--②|
④口⑤① |--③-|
②⑤口⑥ |④--⑤|
口口⑥口 |--⑥-|
62
口口口口 |-①--|
口①口③ |②-③-|
口口①口
②口口口

口④口⑤
④口⑤口
口⑥⑥口 |④-⑤-|
口口口口 |-⑥--|
63
口③口口 |①--②|
③口口口 |--③-|
口口口②
①①②口

口口④口
口⑤口④
⑥口⑤口 |④--⑤|
口⑥口口 |--⑥-|
64
口口④口 |-①--|
③口①④ |②-③-|
口①⑤② |④-⑤-|
⑥⑦⑧⑨ |⑥⑦⑧⑨|
65
①①⑤⑤ |①--②|
⑥③②⑦ |③-④-|
⑧口④口 |⑤--⑥|
口口口口 |⑦-⑧-|
66
①①⑤⑤ |①--②|
⑥③②⑦ |③-④-|
⑧口④口 |⑤--⑥|
口口口口 |⑦-⑧-|
67
口口口口 |①--②|
⑥③②⑦ |③-④-|
⑧口④口 |⑤--⑥|
①①⑤⑤ |⑦-⑧-|
68
口口口口 |①--②|
⑥③②⑦ |③-④-|
⑧口④口 |⑤--⑥|
①①⑤⑤ |⑦-⑧-|
69
①①口口 |①---|
口口口口 |----|
口口口口 |----|
口口口口 |----|
70
口口口口 |----|
口①①口 |----|
口①①口 |----|
口口口口 |①---|
71
①⑤口口 |①---|
口口④口 |--②-|
口口口③ |③--④|
口口口② |--⑤-|
72
④口口① |①--②|
口口口口 |--③-|
口③口口 |④---|
②口口口 |----|
73
口口口① |①-②③|
口②③④ |④-⑤-|
口口口口
⑤口口口

口口口口
口⑨口口
口⑦⑧口 |⑥-⑦-|
口口口⑥ |⑧-⑨-|
74
③口①口 |①-②-|
口口口口 |--③-|
④口口② |④---|
口口口口 |----|
75
⑤口⑥口 |①-②③|
⑨②③④ |④-⑤-|
口⑧口口 |⑥-⑦-|
⑦①①口 |⑧-⑨-|
76
口口⑩① |①-②③|
⑨④③② |④-⑤⑥|
⑧口口口 |⑦-⑧-|
⑤⑥⑦口 |⑨-⑩-|
77
④⑨口① |①-②-|
口③口⑧ |③-④-|
口⑦⑥⑤ |⑤⑥⑦-|
口口口② |⑧-⑨-|
78
口口口① |①-②-|
②口③口 |③-④-|
口④口口 |⑤---|
口口口⑤ |----|
79
①②口口 |①--②|
①②口口 |--③-|
⑤⑥④③ |-④--|
⑤⑥④③ |⑤--⑥|
80
口口②① |--①-|
口口②① |-②--|
口口口口
口口口口

口⑤口⑤
口口口口
④口④口 |③--④|
③口③口 |--⑤-|
81
②口口口 |①-②-|
⑤①⑥① |--③-|
口口口③ |④-⑤-|
④口④口 |--⑥-|
82
①①②② |①--②|
口口口口 |--③-|
③③口口 |④---|
口口④④ |----|
83
①②⑧⑦ |①-②-|
口口口③ |③-④-|
⑥口口④ |⑤-⑥-|
⑤口口口 |⑦-⑧-|
84
⑥口口口 |①-②-|
口②口⑦ |③-④-|
口①口口 |⑤-⑥-|
⑤口④③ |--⑦-|
85
⑥②③③ |①--②|
⑥④①⑤ |--③-|
⑤①④⑥ |④--⑤|
③③②⑥ |--⑥-|
86
口①③③ |①--②|
口⑤①⑤ |--③-|
⑤②⑤口 |④---|
④④②口 |⑤---|

不確定度: 0

最終更新:2016年04月18日 01:20