NEON WORLD
SOUND HOLIC feat. Nana Takahashi

BASIC

Level: 4
BPM: 154-164
Notes: 383

BPM: 154
1
口④口口 |①---|
口口口③ |②---|
口口口② |③---|
口口口① |④---|
2
口口口口 |①---|
口①口口 |②---|
口②口口 |③---|
口③口口 |----|
3
口口口口 |①---|
③口口① |②---|
④口口② |③---|
口口口口 |④---|
4
口口口口 |①---|
口①①口 |②---|
口②②口 |③---|
口③③口 |----|
5
口口④口 |①---|
③口口口 |②---|
②口口口 |③---|
①口口口 |④---|
6
口口口口 |①---|
口口①口 |②---|
口口②口 |③---|
口口③口 |----|
7
③①①③ |①---|
④②②④ |②---|
口口口口 |③---|
口口口口 |④---|
8
口口口口 |----|
口口口口 |----|
口②②口 |①---|
口①①口 |②---|

BPM: 164
9
口口口口 |①---|
口①①口 |----|
口口口口 |----|
口口口口 |----|
10
口口口口 |①---|
口口口② |----|
口①①③ |②--③|
口口口④ |--④-|
11
口口口口 |①---|
口口口口 |----|
口口口口 |----|
①①口口 |----|
12
②口口② |①---|
③口口③ |----|
口①①口 |②---|
口口口口 |③---|
13
口口口口 |①---|
口口口口 |----|
口①①口 |----|
口口口口 |----|
14
②口口口 |①---|
③①①口 |----|
④口口口 |②--③|
口口口口 |--④-|
15
口口口口 |①---|
口口口口 |----|
口口①① |----|
口口口口 |----|
16
口①①③ |①---|
口口口口 |----|
口口口② |②---|
口口口口 |③---|
17
①口口口 |①---|
②口口口 |②---|
③口口口 |③---|
④口口口 |④---|
18
口口口口 |①---|
口口口口 |②---|
口②④口 |③---|
口①③口 |④---|
19
口口口① |①---|
口口口② |②---|
口口口③ |③---|
口口口④ |④---|
20
口口口口 |①---|
口口口口 |②---|
口④②口 |③---|
口③①口 |④---|
21
①口口口 |①---|
②口口口 |②---|
③口口口 |③---|
④口口口 |④---|
22
口口口口 |①---|
口口口口 |②---|
口②④口 |③---|
口①③口 |④---|
23
口口口① |①---|
口口口② |②---|
口口口③ |③---|
口口口④ |④---|
24
口口④口 |①---|
口口③口 |②---|
口口②口 |③---|
口口①口 |④---|
25
②②口口 |①---|
①①口口 |----|
口口口口 |②---|
口口口口 |----|
26
口口口口 |----|
口口①口 |--①-|
口②口口 |----|
口口口口 |②---|
27
口口口口 |①---|
口②口口 |--②-|
口口③口 |----|
口①口口 |③---|
28
口口口口 |①---|
口口口② |--②-|
口口口③ |----|
口口①口 |③---|
29
③口口③ |①---|
④②②④ |--②-|
口①①口 |③---|
口口口口 |--④-|
30
口口口口 |①---|
口②口口 |--②-|
口①①口
口口口口

口口口口
口口口口
口口③口 |----|
口口口口 |③---|
31
口口口口 |①---|
口口②口 |--②-|
口③口口 |----|
口口①口 |③---|
32
口口口口 |①---|
口口口口 |----|
口②②口 |----|
口①口口 |②---|
33
口口口口 |①---|
口①①口 |----|
口口口口 |----|
口口口口 |----|
34
口①口口 |----|
口②口口 |①---|
口③口口 |②---|
口口口口 |③---|
35
口口口口 |①---|
口口口口 |----|
口口口口 |----|
口①口口 |----|
36
口口①口 |----|
口口②口 |①---|
口口③口 |②---|
口口口口 |③---|
37
口口口口 |①---|
口口口口 |----|
口口口口 |----|
口口①口 |----|
38
口口口口 |①---|
口①③口 |②---|
口②口口 |----|
口口口口 |③---|
39
口口口口 |①---|
口口口口 |②---|
②口①④ |③---|
③口口口 |④---|
40
口口口口 |①---|
口口口口 |----|
口口口口 |----|
口口口① |----|
41
③口口③ |①--②|
②口④② |--③-|
①口⑤① |④---|
口口口口 |⑤---|
42
口口口口 |①---|
口②口口 |----|
口③口口 |②---|
口口①口 |③---|
43
口口口② |①---|
口口口③ |----|
口口口口 |②---|
口①口口 |③---|
44
②口口口 |①---|
③口口口 |----|
口口口① |②---|
口口口口 |③---|
45
口口口口 |①---|
口①①口 |②---|
口②②④ |③---|
口口口③ |④---|
46
口口口口 |①---|
③口口① |----|
②口口口 |②---|
口口口口 |③---|
47
①口口口 |①---|
口口③口 |----|
口口②口 |②---|
口口口口 |③---|
48
①口口① |①---|
②口口② |②---|
③口口③ |③---|
④口口④ |④---|
49
口口口口 |----|
口口②② |----|
口口①① |①---|
口口口口 |②---|
50
③③①① |①---|
②②口口 |----|
口口口口 |②---|
口口口口 |③---|
51
口①①口 |----|
口②②口 |----|
口口口口 |①---|
口口口口 |②---|
52
口口口口 |①---|
②口口② |--②-|
口③③口 |--③-|
①④④① |--④-|
53
口口口口 |--①-|
口口口口 |--②-|
②口口② |--③-|
①③③① |----|
54
口口口口 |①---|
口①①口 |----|
口口口口
口口口口

口口口口
口③口口
口②口口 |②---|
口口口口 |③---|
55
口口①① |----|
口口②② |----|
口口口口 |①---|
口口口口 |②---|
56
口口口口 |①---|
口口口口 |----|
口口①① |----|
口口口口 |----|
57
口口口口 |----|
口口口口 |----|
口口口口 |----|
口口口口 |----|
58
口口口口 |①---|
口口口口 |----|
口①①口 |----|
口口口口
59
口口口口 |①---|
口①①口 |----|
口口口口 |----|
口口口口
60
口口口口 |①---|
口口口口 |----|
①口口① |----|
口口口口
61
口口口口 |①---|
①口口① |----|
口口口口 |----|
口口口口
62
口口口口 |①---|
口口②② |--②-|
口口①口 |----|
口口口口
63
口口口口 |①---|
②②口口 |--②-|
口①口口 |----|
口口口口
64
口口口口 |①---|
口口②② |--②-|
口口口① |----|
口口口口
65
口口口口 |①---|
②②口口 |--②-|
①口口口 |----|
口口口口
66
口口口口 |①---|
口口口口 |--②-|
口口①① |----|
口口②②
67
口口口口 |①---|
口口口口 |--②-|
①①口口 |----|
②②口口
68
口口口口 |①---|
口口①① |--②-|
口口②② |----|
口口口口
69
口口口口 |①---|
①①口口 |--②-|
②②口口 |----|
口口口口
70
口口①① |①---|
口口②② |--②-|
口口口口 |----|
口口口口
71
①①口口 |①---|
②②口口 |--②-|
口口口口 |----|
口口口口
72
①①①① |①---|
②②②② |--②-|
口口口口 |----|
口口口口
73
口口口口 |①---|
②②②② |--②-|
①①①① |----|
口口口口
74
口口口口 |①---|
口口口口 |--②-|
①①①① |----|
②②②②
75
口口口口 |①---|
口②口口 |②---|
口①口口
口口口口
76
口①口口 |①---|
口口③口 |----|
口口②口 |②---|
口口口口 |③---|
77
口口①口 |①---|
③口口口 |----|
②口口口 |②---|
口口口口 |③---|
78
①口口口 |①---|
口口口③ |----|
口口口② |②---|
口口口口 |③---|
79
口口口① |①---|
口②②口 |----|
口③③口 |②---|
口口口口 |③---|
80
口口口口 |①---|
②口口② |----|
③口口③ |②---|
口①①口 |③---|
81
②口口② |①---|
③口口③ |----|
口口口口 |②---|
①口口① |③---|
82
口①①口 |①---|
口②②口 |②---|
口③③口 |③---|
口④④口 |④---|
83
口口口口 |----|
①①口口 |----|
②②口口 |①---|
口口口口 |②---|
84
口口口口 |①---|
口口②② |----|
口口③③ |②---|
①①口口 |③---|
85
口口口口 |①---|
②口口② |----|
③口口③ |②---|
口口①① |③---|
86
口②②口 |①---|
口口口口 |--②-|
口①①口
口口口口

口口口口
口③③口
口④④口 |--③-|
口口口口 |--④-|
87
口口口口 |--①-|
口口口口 |--②-|
③口口③ |--③-|
②①①② |----|
88
口①①口 |①---|
②②口口 |----|
③③口口 |②---|
口口口口 |③---|
89
口口口口 |①---|
口口②② |----|
口口③③ |②---|
①①口口 |③---|
90
口口口口 |①---|
口口口口 |----|
口口口口 |----|
口口①① |----|
91
口口口口 |----|
口口口口 |----|
口口口口 |----|
口口口口 |----|
92
口口口口 |①---|
口口口口 |----|
口①①口 |----|
口口口口 |----|
93
口口①口 |①---|
口②口口 |②---|
口口③口 |③---|
口④口口 |④---|
94
口口口口 |①---|
口口口口 |----|
①②②① |----|
口口口口 |②---|
95
②②②② |①---|
口①①口 |----|
口口口口 |②---|
口口口口 |----|

不確定度: 0

最終更新:2016年05月11日 19:02